<?xml version="1.0" standalone="no"?>
<!DOCTYPE svg PUBLIC "-//W3C//DTD SVG 1.1//EN" "http://www.w3.org/Graphics/SVG/1.1/DTD/svg11.dtd" >
<svg>
<metadata>
Created by FontForge 20090622 at Thu Nov 29 07:33:11 2018
 By deploy user
&#194;&#169;2018, McDonald&#226;&#128;&#153;s Corporation. All rights reserved.
</metadata>
<defs>
<font id="SpeedeeApp-LightItalic" horiz-adv-x="0" >
  <font-face 
    font-family="Speedee App Light"
    font-weight="300"
    font-style="italic"
    font-stretch="normal"
    units-per-em="1000"
    panose-1="2 11 4 3 3 5 2 9 2 4"
    ascent="800"
    descent="-200"
    x-height="496"
    cap-height="670"
    bbox="-181 -279 1186 964"
    underline-thickness="40"
    underline-position="-65"
    slope="-12"
    unicode-range="U+000D-U+FB04"
  />
<missing-glyph horiz-adv-x="500" 
d="M391 0h-387l142 670h387zM364 29l130 612h-321l-130 -612h321z" />
    <glyph glyph-name="f_f.liga" unicode="ff" horiz-adv-x="612" 
d="M45 0l97 459h-77l8 37h77l8 36q20 91 61 136t109 45q47 0 77 -18l-13 -32q-16 7 -29.5 10t-30.5 3q-51 0 -82.5 -34.5t-48.5 -114.5l-7 -31h258l8 36q20 91 61 136t109 45q47 0 77 -18l-13 -32q-16 7 -29.5 10t-30.5 3q-51 0 -82.5 -34.5t-48.5 -114.5l-7 -31h150l-8 -37
h-149l-98 -459h-44l97 459h-257l-98 -459h-44z" />
    <glyph glyph-name="f_i.liga" unicode="fi" horiz-adv-x="523" 
d="M45 0l97 459h-77l8 37h77l8 36q20 91 61 136t109 45q47 0 77 -18l-13 -32q-16 7 -29.5 10t-30.5 3q-51 0 -82.5 -34.5t-48.5 -114.5l-7 -31h150l-8 -37h-149l-98 -459h-44zM498 596q-13 0 -23 8t-10 23q0 17 12 29t29 12q13 0 23 -8t10 -23q0 -17 -12 -29t-29 -12zM347 0
l105 496h44l-105 -496h-44z" />
    <glyph glyph-name="f_l.liga" unicode="fl" horiz-adv-x="519" 
d="M45 0l97 459h-77l8 37h77l8 36q20 91 61 136t109 45q47 0 77 -18l-13 -32q-16 7 -29.5 10t-30.5 3q-51 0 -82.5 -34.5t-48.5 -114.5l-7 -31h150l-8 -37h-149l-98 -459h-44zM342 0l149 700h44l-149 -700h-44z" />
    <glyph glyph-name="f_f_i.liga" unicode="ffi" horiz-adv-x="825" 
d="M45 0l97 459h-77l8 37h77l8 36q20 91 61 136t109 45q47 0 77 -18l-13 -32q-16 7 -29.5 10t-30.5 3q-51 0 -82.5 -34.5t-48.5 -114.5l-7 -31h259l8 36q19 91 61 136t109 45q47 0 77 -18l-13 -32q-17 7 -30 10t-30 3q-51 0 -82.5 -34.5t-48.5 -114.5l-7 -31h150l-8 -37
h-149l-98 -459h-44l97 459h-258l-98 -459h-44zM800 596q-13 0 -23 8t-10 23q0 17 12 29t29 12q13 0 23 -8t10 -23q0 -17 -12 -29t-29 -12zM649 0l105 496h44l-105 -496h-44z" />
    <glyph glyph-name="f_f_l.liga" unicode="ffl" horiz-adv-x="822" 
d="M45 0l97 459h-77l8 37h77l8 36q20 91 61 136t109 45q47 0 77 -18l-13 -32q-16 7 -29.5 10t-30.5 3q-51 0 -82.5 -34.5t-48.5 -114.5l-7 -31h258l8 36q20 91 61 136t109 45q47 0 77 -18l-13 -32q-16 7 -29.5 10t-30.5 3q-51 0 -82.5 -34.5t-48.5 -114.5l-7 -31h150l-8 -37
h-149l-98 -459h-44l97 459h-257l-98 -459h-44zM645 0l149 700h44l-149 -700h-44z" />
    <glyph glyph-name=".notdef" horiz-adv-x="500" 
d="M391 0h-387l142 670h387zM364 29l130 612h-321l-130 -612h321z" />
    <glyph glyph-name="glyph1" 
 />
    <glyph glyph-name="glyph1" 
 />
    <glyph glyph-name="uni000D" unicode="&#xd;" horiz-adv-x="190" 
 />
    <glyph glyph-name="space" unicode=" " horiz-adv-x="190" 
 />
    <glyph glyph-name="uni00A0" unicode="&#xa0;" horiz-adv-x="190" 
 />
    <glyph glyph-name="uni2000" unicode="&#x2000;" 
 />
    <glyph glyph-name="uni2001" unicode="&#x2001;" 
 />
    <glyph glyph-name="uni2002" unicode="&#x2002;" 
 />
    <glyph glyph-name="uni2003" unicode="&#x2003;" 
 />
    <glyph glyph-name="uni2004" unicode="&#x2004;" 
 />
    <glyph glyph-name="uni2005" unicode="&#x2005;" 
 />
    <glyph glyph-name="uni2006" unicode="&#x2006;" 
 />
    <glyph glyph-name="uni2007" unicode="&#x2007;" 
 />
    <glyph glyph-name="uni2008" unicode="&#x2008;" 
 />
    <glyph glyph-name="uni2009" unicode="&#x2009;" 
 />
    <glyph glyph-name="uni200A" unicode="&#x200a;" 
 />
    <glyph glyph-name="uni200B" unicode="&#x200b;" 
 />
    <glyph glyph-name="period" unicode="." horiz-adv-x="220" 
d="M64 -6q-39 0 -39 36q0 21 13.5 34.5t33.5 13.5t29.5 -11t9.5 -27q0 -19 -14 -32.5t-33 -13.5z" />
    <glyph glyph-name="colon" unicode=":" horiz-adv-x="220" 
d="M67 -6q-39 0 -39 36q0 21 13.5 34.5t33.5 13.5t29.5 -11t9.5 -27q0 -19 -14 -32.5t-33 -13.5zM155 412q-39 0 -39 36q0 21 13.5 34.5t33.5 13.5t29.5 -11t9.5 -27q0 -19 -14 -32.5t-33 -13.5z" />
    <glyph glyph-name="comma" unicode="," horiz-adv-x="220" 
d="M-11 -117l7 30q28 10 45 29t23 52q-36 1 -36 36q0 21 14 34.5t33 13.5q17 0 28.5 -11t11.5 -35q0 -26 -14.5 -58.5t-42.5 -58t-69 -32.5z" />
    <glyph glyph-name="semicolon" unicode=";" horiz-adv-x="220" 
d="M-11 -117l7 30q28 10 45 29t23 52q-36 1 -36 36q0 21 14 34.5t33 13.5q17 0 28.5 -11t11.5 -35q0 -26 -14.5 -58.5t-42.5 -58t-69 -32.5zM152 412q-39 0 -39 36q0 21 13.5 34.5t33.5 13.5t29.5 -11t9.5 -27q0 -19 -14 -32.5t-33 -13.5z" />
    <glyph glyph-name="question" unicode="?" horiz-adv-x="428" 
d="M143 160l7 32q5 23 14.5 45t31 45t61.5 50l67 45q96 63 96 155q0 52 -33.5 83t-97.5 31q-65 0 -112 -40.5t-66 -127.5h-46q20 98 80 153t148 55q82 0 127.5 -41t45.5 -110q0 -58 -32 -106t-90 -86l-64 -42q-27 -17 -43.5 -31.5t-26.5 -33t-17 -47.5l-7 -29h-43zM141 -9
q-39 0 -39 36q0 21 14 34.5t33 13.5t29 -10.5t10 -27.5q0 -19 -14 -32.5t-33 -13.5z" />
    <glyph glyph-name="exclam" unicode="!" horiz-adv-x="200" 
d="M61 161l107 509h48l-117 -509h-38zM51 -9q-39 0 -39 36q0 21 14 34.5t33 13.5t29 -10.5t10 -27.5q0 -19 -14 -32.5t-33 -13.5z" />
    <glyph glyph-name="asterisk" unicode="*" horiz-adv-x="359" 
d="M131 378l-35 27q25 29 59 60.5t67 57.5q-37 6 -75 16t-68 21l23 43q30 -10 66 -26t65 -33q2 37 8 79.5t14 75.5h46q-7 -33 -19.5 -75.5t-26.5 -79.5q37 17 80 33t77 26l5 -43q-34 -11 -77.5 -21t-82.5 -16q21 -26 42 -58.5t35 -59.5l-40 -27q-14 27 -29.5 63.5
t-26.5 70.5q-24 -34 -52.5 -70.5t-54.5 -63.5z" />
    <glyph glyph-name="underscore" unicode="_" horiz-adv-x="500" 
d="M-48 -125l9 40h500l-9 -40h-500z" />
    <glyph glyph-name="ampersand" unicode="&#x26;" horiz-adv-x="682" 
d="M243 -10q-89 0 -138 47t-49 121q0 75 49 132t127 89q-18 33 -30.5 65t-12.5 69q0 41 21 77t57.5 58t85.5 22q64 0 97 -34t33 -83q0 -47 -26.5 -84.5t-71 -64.5t-97.5 -43l97 -182l23 -42.5t22 -34.5q36 35 62.5 87t42.5 122h45q-18 -78 -50 -137.5t-76 -100.5
q17 -16 36.5 -24t46.5 -8q16 0 32 4v-38q-9 -3 -19 -5t-24 -2q-34 0 -59 13t-45 34q-79 -57 -179 -57zM235 513q0 -33 10 -61t26 -59q72 24 119 60.5t47 96.5q0 38 -21.5 60t-66.5 22q-56 0 -85 -36t-29 -83zM104 162q0 -62 38 -96.5t106 -34.5q86 0 150 45q-12 17 -22.5 36
l-19.5 36l-107 199q-66 -29 -105.5 -74.5t-39.5 -110.5z" />
    <glyph glyph-name="ellipsis" unicode="&#x2026;" horiz-adv-x="1000" 
d="M122 -6q-39 0 -39 36q0 21 13.5 34.5t33.5 13.5t29.5 -11t9.5 -27q0 -19 -14 -32.5t-33 -13.5zM455 -6q-39 0 -39 36q0 21 13.5 34.5t33.5 13.5t29.5 -11t9.5 -27q0 -19 -14 -32.5t-33 -13.5zM788 -6q-39 0 -39 36q0 21 13.5 34.5t33.5 13.5t29.5 -11t9.5 -27
q0 -19 -14 -32.5t-33 -13.5z" />
    <glyph glyph-name="quotesingle" unicode="'" horiz-adv-x="269" 
d="M170 480q6 47 13.5 87.5t15.5 77.5l12 55h48l-12 -55q-7 -34 -18.5 -74.5t-29.5 -90.5h-29z" />
    <glyph glyph-name="quotedbl" unicode="&#x22;" horiz-adv-x="402" 
d="M170 480q6 47 13.5 87.5t15.5 77.5l12 55h48l-12 -55q-7 -34 -18.5 -74.5t-29.5 -90.5h-29zM302 480q6 47 13.5 87.5t15.5 77.5l12 55h48l-12 -55q-7 -34 -18.5 -74.5t-29.5 -90.5h-29z" />
    <glyph glyph-name="quoteleft" unicode="&#x2018;" horiz-adv-x="137" 
d="M218 710l-7 -27q-24 -10 -39 -25t-21 -42q33 -1 33 -33q0 -19 -12.5 -31t-30.5 -12q-15 0 -25.5 10t-10.5 31q0 23 13 50.5t38.5 50t61.5 28.5z" />
    <glyph glyph-name="quoteright" unicode="&#x2019;" horiz-adv-x="137" 
d="M87 540l7 27q24 10 39 25t21 42q-33 1 -33 33q0 19 12.5 31t30.5 12q15 0 25.5 -10t10.5 -31q0 -23 -13 -50.5t-38 -50t-62 -28.5z" />
    <glyph glyph-name="quotesinglbase" unicode="&#x201a;" horiz-adv-x="137" 
d="M-42 -101l7 27q24 10 39 25t21 42q-33 1 -33 33q0 19 12.5 31t30.5 12q15 0 25.5 -10t10.5 -31q0 -23 -13 -50.5t-38 -50t-62 -28.5z" />
    <glyph glyph-name="quotedblleft" unicode="&#x201c;" horiz-adv-x="247" 
d="M218 710l-7 -27q-24 -10 -39 -25t-21 -42q33 -1 33 -33q0 -19 -12.5 -31t-30.5 -12q-15 0 -25.5 10t-10.5 31q0 23 13 50.5t38.5 50t61.5 28.5zM328 710l-7 -27q-24 -10 -39 -25t-21 -42q33 -1 33 -33q0 -19 -12.5 -31t-30.5 -12q-15 0 -25.5 10t-10.5 31q0 23 13 50.5
t38.5 50t61.5 28.5z" />
    <glyph glyph-name="quotedblright" unicode="&#x201d;" horiz-adv-x="247" 
d="M87 540l7 27q24 10 39 25t21 42q-33 1 -33 33q0 19 12.5 31t30.5 12q15 0 25.5 -10t10.5 -31q0 -23 -13 -50.5t-38 -50t-62 -28.5zM197 540l7 27q24 10 39 25t21 42q-33 1 -33 33q0 19 12.5 31t30.5 12q15 0 25.5 -10t10.5 -31q0 -23 -13 -50.5t-38 -50t-62 -28.5z" />
    <glyph glyph-name="quotedblbase" unicode="&#x201e;" horiz-adv-x="247" 
d="M-42 -101l7 27q24 10 39 25t21 42q-33 1 -33 33q0 19 12.5 31t30.5 12q15 0 25.5 -10t10.5 -31q0 -23 -13 -50.5t-38 -50t-62 -28.5zM68 -101l7 27q24 10 39 25t21 42q-33 1 -33 33q0 19 12.5 31t30.5 12q15 0 25.5 -10t10.5 -31q0 -23 -13 -50.5t-38 -50t-62 -28.5z" />
    <glyph glyph-name="hyphen" unicode="-" horiz-adv-x="379" 
d="M51 218l8 39h266l-9 -39h-265z" />
    <glyph glyph-name="uni2010" unicode="&#x2010;" horiz-adv-x="379" 
d="M51 218l8 39h266l-9 -39h-265z" />
    <glyph glyph-name="uni2011" unicode="&#x2011;" horiz-adv-x="379" 
d="M51 218l8 39h266l-9 -39h-265z" />
    <glyph glyph-name="endash" unicode="&#x2013;" horiz-adv-x="500" 
d="M-9 218l8 39h500l-8 -39h-500z" />
    <glyph glyph-name="emdash" unicode="&#x2014;" horiz-adv-x="1000" 
d="M-9 218l8 39h1000l-8 -39h-1000z" />
    <glyph glyph-name="parenleft" unicode="(" horiz-adv-x="258" 
d="M134 -100q-30 64 -44.5 131t-14.5 146q0 105 31.5 203.5t86.5 185t127 154.5h43q-75 -76 -129 -166t-83 -186t-29 -191q0 -80 13 -148.5t39 -128.5h-40z" />
    <glyph glyph-name="parenright" unicode=")" horiz-adv-x="258" 
d="M-57 -100q75 76 129 166t83 186t29 191q0 80 -13 148.5t-39 128.5h40q30 -64 44.5 -131t14.5 -146q0 -105 -31.5 -203.5t-86.5 -185t-127 -154.5h-43z" />
    <glyph glyph-name="slash" unicode="/" horiz-adv-x="292" 
d="M-73 -105l399 790h48l-400 -790h-47z" />
    <glyph glyph-name="backslash" unicode="\" horiz-adv-x="292" 
d="M170 -105l-55 790h42l56 -790h-43z" />
    <glyph glyph-name="bracketleft" unicode="[" horiz-adv-x="249" 
d="M3 -100l174 820h151l-8 -37h-106l-158 -746h114l-8 -37h-159z" />
    <glyph glyph-name="bracketright" unicode="]" horiz-adv-x="249" 
d="M273 720l-174 -820h-151l8 37h106l158 746h-114l8 37h159z" />
    <glyph glyph-name="braceleft" unicode="{" horiz-adv-x="307" 
d="M174 -100q-58 0 -85.5 28t-27.5 69q0 29 12.5 65t23.5 75q11 36 16 60.5t5 49.5t-12.5 35t-34.5 10h-22l8 36h23q31 0 49.5 14t27.5 53t13 114q4 73 20.5 119.5t53 69t98.5 22.5h44l-9 -38h-41q-48 0 -73.5 -20t-36 -61.5t-14.5 -105.5q-4 -58 -11.5 -99t-25.5 -63.5
t-55 -25.5q16 -4 28.5 -17t12.5 -39q0 -29 -5.5 -55t-16.5 -60l-24 -70t-12 -66q0 -27 18.5 -44.5t61.5 -17.5h36l-8 -38h-37z" />
    <glyph glyph-name="braceright" unicode="}" horiz-adv-x="307" 
d="M171 720q59 0 86 -28t27 -69q0 -29 -11 -66t-25 -74q-13 -36 -22.5 -67.5t-9.5 -54.5q0 -25 12.5 -35.5t34.5 -10.5h22l-8 -38h-23q-31 0 -49.5 -13.5t-27.5 -51.5t-13 -111t-20.5 -119.5t-53 -69t-98.5 -22.5h-44l9 38h41q50 0 75 20t35 61.5t16 105.5q5 56 12 96
t24.5 62.5t52.5 25.5q-16 3 -28 15.5t-12 42.5q0 28 10 60.5t23 66.5t24 69.5t11 66.5q0 27 -18 44.5t-61 17.5h-36l8 38h37z" />
    <glyph glyph-name="bullet" unicode="&#x2022;" horiz-adv-x="260" 
d="M119 162q-35 0 -53 17.5t-18 48.5q0 37 25 61.5t60 24.5t53 -19.5t18 -49.5q0 -34 -25 -58.5t-60 -24.5z" />
    <glyph glyph-name="guilsinglleft" unicode="&#x2039;" horiz-adv-x="324" 
d="M163 52l-109 193l185 193h53l-188 -198l106 -188h-47z" />
    <glyph glyph-name="guilsinglright" unicode="&#x203a;" horiz-adv-x="324" 
d="M162 438l109 -193l-185 -193h-53l188 198l-106 188h47z" />
    <glyph glyph-name="guillemotleft" unicode="&#xab;" horiz-adv-x="563" 
d="M163 52l-109 193l185 193h53l-188 -198l106 -188h-47zM402 52l-109 193l185 193h53l-188 -198l106 -188h-47z" />
    <glyph glyph-name="guillemotright" unicode="&#xbb;" horiz-adv-x="563" 
d="M162 438l109 -193l-185 -193h-53l188 198l-106 188h47zM401 438l109 -193l-185 -193h-53l188 198l-106 188h47z" />
    <glyph glyph-name="at" unicode="@" horiz-adv-x="908" 
d="M416 -162q-110 0 -192.5 39t-129 119t-46.5 201q0 97 33 183.5t94 153t145 104t187 37.5q109 0 193 -39.5t131.5 -115.5t47.5 -183q0 -80 -27.5 -147.5t-78.5 -108.5t-123 -41q-46 0 -67.5 23t-21.5 55q0 5 1 14q-31 -44 -73 -68t-93 -24q-68 0 -107.5 43t-39.5 120
q0 48 16 93t45.5 81t70.5 57.5t92 21.5q58 0 93 -32t45 -82l24 94l36 -2l-61 -265q-4 -19 -5.5 -29.5t-1.5 -20.5q0 -43 53 -43q58 0 98 37.5t61.5 97t21.5 125.5q0 98 -42.5 165.5t-117.5 102t-173 34.5q-95 0 -171.5 -36t-130.5 -97.5t-83 -140t-29 -164.5
q0 -111 43.5 -183t118 -107t169.5 -35q50 0 92.5 9t85.5 26l12 -34q-52 -20 -97.5 -29t-97.5 -9zM405 76q45 0 82.5 22t63 58t35.5 77l3 12q2 10 3 20.5t1 17.5q0 55 -31 95.5t-89 40.5q-52 0 -92.5 -30t-63.5 -78.5t-23 -104.5q0 -63 29 -96.5t82 -33.5z" />
    <glyph glyph-name="periodcentered" unicode="&#xb7;" horiz-adv-x="220" 
d="M101 196q-39 0 -39 36q0 21 13.5 34.5t33.5 13.5t29.5 -11t9.5 -27q0 -19 -14 -32.5t-33 -13.5z" />
    <glyph glyph-name="questiondown" unicode="&#xbf;" horiz-adv-x="428" 
d="M315 505q39 0 39 -36q0 -21 -14 -34.5t-33 -13.5t-29 10.5t-10 27.5q0 19 14 32.5t33 13.5zM313 336l-7 -32q-5 -23 -14.5 -45.5t-30.5 -45.5t-62 -49l-67 -43q-46 -30 -71 -71.5t-25 -85.5q0 -52 33.5 -83t97.5 -31q65 0 112 40.5t66 127.5h46q-20 -98 -80 -153
t-148 -55q-82 0 -127.5 41t-45.5 110q0 58 32 107.5t90 86.5l64 40q26 17 43 31.5t27 33t17 47.5l7 29h43z" />
    <glyph glyph-name="exclamdown" unicode="&#xa1;" horiz-adv-x="200" 
d="M156 505q39 0 39 -36q0 -21 -13.5 -34.5t-33.5 -13.5t-29.5 10.5t-9.5 27.5q0 19 14 32.5t33 13.5zM146 335l-107 -509h-48l117 509h38z" />
    <glyph glyph-name="hyphen.case" horiz-adv-x="373" 
d="M61 316l8 39h266l-9 -39h-265z" />
    <glyph glyph-name="uni2010.case" horiz-adv-x="373" 
d="M61 316l8 39h266l-9 -39h-265z" />
    <glyph glyph-name="uni2011.case" horiz-adv-x="373" 
d="M61 316l8 39h266l-9 -39h-265z" />
    <glyph glyph-name="endash.case" horiz-adv-x="500" 
d="M6 316l8 39h500l-8 -39h-500z" />
    <glyph glyph-name="emdash.case" horiz-adv-x="1000" 
d="M6 316l8 39h1000l-8 -39h-1000z" />
    <glyph glyph-name="parenleft.case" horiz-adv-x="258" 
d="M128 -75q-30 64 -44.5 131t-14.5 146q0 105 31.5 203.5t86.5 185t127 154.5h43q-75 -76 -129 -166t-83 -186t-29 -191q0 -80 13 -148.5t39 -128.5h-40z" />
    <glyph glyph-name="parenright.case" horiz-adv-x="258" 
d="M-64 -75q75 76 129 166t83 186t29 191q0 80 -13 148.5t-39 128.5h40q30 -64 44.5 -131t14.5 -146q0 -105 -31.5 -203.5t-86.5 -185t-127 -154.5h-43z" />
    <glyph glyph-name="slash.case" horiz-adv-x="292" 
d="M-66 -61l399 790h48l-400 -790h-47z" />
    <glyph glyph-name="backslash.case" horiz-adv-x="292" 
d="M174 -61l-55 790h42l56 -790h-43z" />
    <glyph glyph-name="bracketleft.case" horiz-adv-x="244" 
d="M1 -75l174 820h151l-8 -37h-106l-158 -746h114l-8 -37h-159z" />
    <glyph glyph-name="bracketright.case" horiz-adv-x="244" 
d="M281 745l-174 -820h-151l8 37h106l158 746h-114l8 37h159z" />
    <glyph glyph-name="braceleft.case" horiz-adv-x="302" 
d="M178 -75q-58 0 -85.5 28t-27.5 69q0 29 12.5 65t23.5 75q11 36 16 60.5t5 49.5t-12.5 35t-34.5 10h-22l8 36h23q31 0 49.5 14t27.5 53t13 114q4 73 20.5 119.5t53 69t98.5 22.5h44l-9 -38h-41q-48 0 -73.5 -20t-36 -61.5t-14.5 -105.5q-4 -58 -11.5 -99t-25.5 -63.5
t-55 -25.5q16 -4 28.5 -17t12.5 -39q0 -29 -5.5 -55t-16.5 -60l-24 -70t-12 -66q0 -27 18.5 -44.5t61.5 -17.5h36l-8 -38h-37z" />
    <glyph glyph-name="braceright.case" horiz-adv-x="302" 
d="M162 745q59 0 86 -28t27 -69q0 -29 -11 -66t-25 -74q-13 -36 -22.5 -67.5t-9.5 -54.5q0 -25 12.5 -35.5t34.5 -10.5h22l-8 -38h-23q-31 0 -49.5 -13.5t-27.5 -51.5t-13 -111t-20.5 -119.5t-53 -69t-98.5 -22.5h-44l9 38h41q50 0 75 20t35 61.5t16 105.5q5 56 12 96
t24.5 62.5t52.5 25.5q-16 3 -28 15.5t-12 42.5q0 28 10 60.5t23 66.5t24 69.5t11 66.5q0 27 -18 44.5t-61 17.5h-36l8 38h37z" />
    <glyph glyph-name="bullet.case" horiz-adv-x="260" 
d="M139 259q-35 0 -53 17.5t-18 48.5q0 37 25 61.5t60 24.5t53 -19.5t18 -49.5q0 -34 -25 -58.5t-60 -24.5z" />
    <glyph glyph-name="guilsinglleft.case" horiz-adv-x="324" 
d="M183 142l-109 193l185 193h53l-188 -198l106 -188h-47z" />
    <glyph glyph-name="guilsinglright.case" horiz-adv-x="324" 
d="M171 528l109 -193l-185 -193h-53l188 198l-106 188h47z" />
    <glyph glyph-name="guillemotleft.case" horiz-adv-x="563" 
d="M183 142l-109 193l185 193h53l-188 -198l106 -188h-47zM422 142l-109 193l185 193h53l-188 -198l106 -188h-47z" />
    <glyph glyph-name="guillemotright.case" horiz-adv-x="563" 
d="M161 528l109 -193l-185 -193h-53l188 198l-106 188h47zM400 528l109 -193l-185 -193h-53l188 198l-106 188h47z" />
    <glyph glyph-name="at.case" horiz-adv-x="908" 
d="M427 -101q-110 0 -192.5 39t-129 119t-46.5 201q0 97 33 183.5t94 153t145 104t187 37.5q109 0 193 -39.5t131.5 -115.5t47.5 -183q0 -80 -27.5 -147.5t-78.5 -108.5t-123 -41q-46 0 -67.5 23t-21.5 55q0 5 1 14q-31 -44 -73 -68t-93 -24q-68 0 -107.5 43t-39.5 120
q0 48 16 93t45.5 81t70.5 57.5t92 21.5q58 0 93 -32t45 -82l24 94l36 -2l-61 -265q-4 -19 -5.5 -29.5t-1.5 -20.5q0 -43 53 -43q58 0 98 37.5t61.5 97t21.5 125.5q0 98 -42.5 165.5t-117.5 102t-173 34.5q-95 0 -171.5 -36t-130.5 -97.5t-83 -140t-29 -164.5
q0 -111 43.5 -183t118 -107t169.5 -35q50 0 92.5 9t85.5 26l12 -34q-52 -20 -97.5 -29t-97.5 -9zM416 137q45 0 82.5 22t63 58t35.5 77l3 12q2 10 3 20.5t1 17.5q0 55 -31 95.5t-89 40.5q-52 0 -92.5 -30t-63.5 -78.5t-23 -104.5q0 -63 29 -96.5t82 -33.5z" />
    <glyph glyph-name="periodcentered.case" horiz-adv-x="220" 
d="M124 293q-39 0 -39 36q0 21 13.5 34.5t33.5 13.5t29.5 -11t9.5 -27q0 -19 -14 -32.5t-33 -13.5z" />
    <glyph glyph-name="questiondown.case" horiz-adv-x="428" 
d="M323 679q39 0 39 -36q0 -21 -14 -34.5t-33 -13.5t-29 10.5t-10 27.5q0 19 14 32.5t33 13.5zM321 510l-7 -32q-5 -23 -14.5 -45.5t-30.5 -45.5t-62 -49l-67 -43q-46 -30 -71 -71.5t-25 -85.5q0 -52 33.5 -83t97.5 -31q65 0 112 40.5t66 127.5h46q-20 -98 -80 -153
t-148 -55q-82 0 -127.5 41t-45.5 110q0 58 32 107.5t90 86.5l64 40q26 17 43 31.5t27 33t17 47.5l7 29h43z" />
    <glyph glyph-name="exclamdown.case" horiz-adv-x="200" 
d="M190 679q39 0 39 -36q0 -21 -13.5 -34.5t-33.5 -13.5t-29.5 10.5t-9.5 27.5q0 19 14 32.5t33 13.5zM180 509l-107 -509h-48l117 509h38z" />
    <glyph glyph-name="uni00AD" unicode="&#xad;" horiz-adv-x="379" 
d="M51 218l8 39h266l-9 -39h-265z" />
    <glyph glyph-name="figuredash" unicode="&#x2012;" horiz-adv-x="590" 
d="M36 218l8 39h500l-8 -39h-500z" />
    <glyph glyph-name="afii00208" unicode="&#x2015;" horiz-adv-x="1000" 
d="M-9 218l8 39h1000l-8 -39h-1000z" />
    <glyph glyph-name="section" unicode="&#xa7;" horiz-adv-x="500" 
d="M504 531h-46q0 44 -21 70.5t-54 38t-72 11.5q-43 0 -78 -15.5t-56.5 -45.5t-21.5 -76q0 -38 22 -66t76 -47l177 -65l-9 -40l-187 67q-123 43 -123 149q0 52 27 91t73 61t104 22q44 0 87.5 -13.5t72.5 -47t29 -94.5zM21 66h46q1 -44 21.5 -70.5t54 -38t71.5 -11.5
q42 0 77.5 15.5t57 46t21.5 75.5q0 38 -22 65.5t-76 47.5l-177 65l9 40l187 -67q123 -44 123 -149q0 -52 -27 -91t-73 -61t-104 -22q-44 0 -87.5 13.5t-72.5 47.5t-29 94z" />
    <glyph glyph-name="paragraph" unicode="&#xb6;" horiz-adv-x="528" 
d="M286 255l-24 3q-88 10 -130.5 56t-42.5 120q0 59 29.5 113t87.5 88.5t146 34.5h185l-165 -775h-46l156 735h-71l-156 -735h-46z" />
    <glyph glyph-name="bar" unicode="|" horiz-adv-x="205" 
d="M6 -100l189 820h44l-189 -820h-44z" />
    <glyph glyph-name="dagger" unicode="&#x2020;" horiz-adv-x="381" 
d="M91 -105l123 562l-144 -3l9 42l143 -3l34 177h43l-41 -177l144 3l-9 -42l-142 3l-117 -562h-43z" />
    <glyph glyph-name="daggerdbl" unicode="&#x2021;" horiz-adv-x="381" 
d="M-2 111l142 -3l73 349l-143 -3l9 42l142 -3l35 177h43l-41 -177l144 3l-9 -42l-143 3l-73 -349l144 3l-9 -42l-143 3l-35 -177h-43l41 177l-143 -3z" />
    <glyph glyph-name="degree" unicode="&#xb0;" horiz-adv-x="298" 
d="M205 452q-50 0 -79 31.5t-29 75.5q0 39 18.5 71t50 51t70.5 19q50 0 79 -31.5t29 -75.5q0 -39 -18.5 -71t-50 -51t-70.5 -19zM209 489q38 0 66 29t28 71q0 31 -19 52.5t-52 21.5q-38 0 -66 -29t-28 -71q0 -31 19 -52.5t52 -21.5z" />
    <glyph glyph-name="trademark" unicode="&#x2122;" horiz-adv-x="881" 
d="M208 250v387h-150v33h338v-33h-150v-387h-38zM431 250l53 420h46l128 -330l126 330h47l54 -420h-37l-47 380l-130 -337h-27l-131 336l-46 -379h-36z" />
    <glyph glyph-name="ordfeminine" unicode="&#xaa;" horiz-adv-x="420" 
d="M187 278q-46 0 -76.5 21.5t-30.5 68.5q0 43 26 70t68 41.5t91 20.5t96 7l4 16q4 19 4 39q0 33 -21 54.5t-62 21.5q-34 0 -68 -19.5t-46 -61.5h-40q17 55 60 84t95 29q59 0 90 -30.5t31 -74.5q0 -21 -6 -52l-49 -228h-34l10 62q-27 -33 -65 -51t-77 -18zM193 314
q34 0 66.5 15t55.5 42.5t31 63.5l8 41q-31 -1 -71 -4t-77 -13.5t-61 -31t-24 -56.5q0 -27 19 -42t53 -15z" />
    <glyph glyph-name="ordmasculine" unicode="&#xba;" horiz-adv-x="422" 
d="M226 278q-68 0 -106.5 42t-38.5 121q0 42 15.5 82.5t43.5 73.5t67.5 53t87.5 20q68 0 106.5 -42t38.5 -121q0 -42 -15.5 -82.5t-43.5 -73.5t-67.5 -53t-87.5 -20zM226 312q53 0 91.5 29t59 75t20.5 96q0 59 -27 91.5t-75 32.5q-53 0 -91.5 -29t-59 -75t-20.5 -96
q0 -59 27 -91.5t75 -32.5z" />
    <glyph glyph-name="copyright" unicode="&#xa9;" horiz-adv-x="833" 
d="M437 0q-95 0 -168 43t-115 119t-42 173t42 173t115 119t168 43t168 -43t115 -119t42 -173t-42 -173t-115 -119t-168 -43zM437 40q83 0 146.5 37.5t99 104t35.5 153.5t-35.5 153.5t-99 104t-146.5 37.5t-146.5 -37.5t-99 -104t-35.5 -153.5t35.5 -153.5t99 -104
t146.5 -37.5zM445 142q-47 0 -87 22t-64 65t-24 106q0 61 24 104t64 66.5t88 23.5q55 0 97.5 -31t57.5 -97h-43q-13 52 -44.5 73t-68.5 21q-31 0 -61.5 -16.5t-50 -51.5t-19.5 -92q0 -55 19.5 -90.5t50 -52t61.5 -16.5q38 0 69.5 24t45.5 79h42q-14 -69 -59.5 -103
t-97.5 -34z" />
    <glyph glyph-name="registered" unicode="&#xae;" horiz-adv-x="556" 
d="M325 188q-71 0 -124.5 31.5t-83.5 87t-30 127.5t30 127.5t83.5 87t124.5 31.5t124.5 -31.5t83.5 -87t30 -127.5t-30 -127.5t-83.5 -87t-124.5 -31.5zM325 224q93 0 145 56.5t52 153.5t-52 153.5t-145 56.5t-145 -56.5t-52 -153.5t52 -153.5t145 -56.5zM238 314v247h93
q46 0 67.5 -19.5t21.5 -51.5q0 -54 -63 -67q27 -10 46 -36t32 -73h-34q-13 56 -44 79.5t-71 23.5h-15v-103h-33zM327 533h-56v-88h56q33 0 46.5 12.5t13.5 30.5q0 20 -13.5 32.5t-46.5 12.5z" />
    <glyph glyph-name="zero" unicode="0" horiz-adv-x="520" 
d="M214 -16q-87 0 -132 62.5t-45 180.5q0 80 21 158.5t60.5 143t94 103t121.5 38.5q87 0 132 -62.5t45 -180.5q0 -80 -21 -158.5t-60.5 -143t-94 -103t-121.5 -38.5zM219 25q56 0 101 37.5t76.5 98t48.5 132t17 139.5q0 197 -132 197q-56 0 -101 -37t-77 -97.5t-49 -132
t-17 -139.5q0 -198 133 -198z" />
    <glyph glyph-name="one" unicode="1" horiz-adv-x="356" 
d="M145 0l131 595q-46 -30 -102.5 -52.5t-104.5 -32.5l9 39q33 8 72.5 23.5t78.5 36.5t69 45h37l-145 -654h-45z" />
    <glyph glyph-name="two" unicode="2" horiz-adv-x="500" 
d="M-3 0l3 14q12 58 35.5 100t60 74t89.5 62l145 81q63 35 101 80t38 106q0 50 -34.5 81t-96.5 31q-74 0 -125 -42.5t-72 -127.5h-47q22 102 89.5 156.5t158.5 54.5q82 0 128 -42.5t46 -110.5q0 -49 -22.5 -89.5t-60.5 -73.5t-85 -59l-147 -81q-60 -33 -95 -72.5t-52 -99.5
h365l-9 -42h-413z" />
    <glyph glyph-name="three" unicode="3" horiz-adv-x="500" 
d="M223 -16q-95 0 -150.5 49t-55.5 132v9.5t1 10.5h47q-1 -6 -1 -11v-15q0 -58 42.5 -96t118.5 -38q64 0 105.5 23t61.5 60.5t20 80.5q0 73 -49.5 107t-127.5 34h-14l9 40h44q86 0 137 39t51 105q0 56 -37 85.5t-95 29.5q-72 0 -120 -36t-65 -106h-49q21 91 86 137t150 46
q83 0 130 -42.5t47 -110.5q0 -69 -44 -114.5t-120 -58.5q61 -19 87.5 -58t26.5 -97q0 -55 -27.5 -101.5t-80 -75t-128.5 -28.5z" />
    <glyph glyph-name="four" unicode="4" horiz-adv-x="536" 
d="M298 0l33 150h-325l10 43l427 461h46l-103 -462h106l-10 -42h-106l-33 -150h-45zM66 192h274l87 390z" />
    <glyph glyph-name="five" unicode="5" horiz-adv-x="500" 
d="M210 -16q-50 0 -93 17t-69 56t-27 106h47q2 -75 42 -106.5t104 -31.5q63 0 107.5 30.5t68.5 81.5t24 110q0 69 -37 106t-98 37q-48 0 -97.5 -24.5t-79.5 -84.5h-38l113 373h346l-9 -42h-303l-72 -237q31 29 71.5 42.5t76.5 13.5q82 0 128 -48.5t46 -135.5
q0 -73 -31 -132.5t-87.5 -95t-132.5 -35.5z" />
    <glyph glyph-name="six" unicode="6" horiz-adv-x="495" 
d="M223 -16q-85 0 -136.5 53t-51.5 171q0 61 13 125.5t39 124.5t63.5 108t86.5 76t109 28q80 0 122.5 -47t42.5 -125h-50q0 68 -32.5 99.5t-84.5 31.5q-81 0 -149.5 -77.5t-105.5 -251.5q30 57 85.5 87t113.5 30q80 0 127.5 -49t47.5 -134q0 -68 -30 -124.5t-84 -91
t-126 -34.5zM226 25q60 0 102.5 29t65 76t22.5 102q0 72 -35.5 108t-98.5 36q-62 0 -107.5 -29t-70.5 -75t-25 -99q0 -67 38.5 -107.5t108.5 -40.5z" />
    <glyph glyph-name="seven" unicode="7" horiz-adv-x="439" 
d="M45 0q45 113 100.5 213t130 197.5t174.5 201.5h-364l9 42h415l-9 -43q-99 -103 -175 -201.5t-132 -199t-95 -210.5h-54z" />
    <glyph glyph-name="eight" unicode="8" horiz-adv-x="514" 
d="M216 -16q-91 0 -148.5 45t-57.5 125q0 74 48.5 126t125.5 70q-40 18 -62 51t-22 79q0 55 30 98t81.5 67.5t114.5 24.5q84 0 135 -44t51 -114q0 -64 -40 -109.5t-106 -63.5q47 -20 73.5 -58.5t26.5 -90.5q0 -60 -33 -106.5t-89.5 -73t-127.5 -26.5zM291 362q53 0 92.5 20
t61 54t21.5 76q0 56 -40 88t-105 32q-51 0 -90.5 -19.5t-61.5 -53.5t-22 -77q0 -58 40 -89t104 -31zM222 25q58 0 102 21.5t68.5 58.5t24.5 85q0 64 -44 100t-116 36q-58 0 -102 -22t-69 -60t-25 -87q0 -67 45 -99.5t116 -32.5z" />
    <glyph glyph-name="nine" unicode="9" horiz-adv-x="495" 
d="M300 670q86 0 138.5 -53t52.5 -171q0 -63 -12.5 -128t-37.5 -125t-62.5 -107t-87 -74.5t-110.5 -27.5q-81 0 -123.5 47.5t-42.5 124.5h50q0 -68 33 -99.5t86 -31.5q83 0 151.5 79t102.5 251q-31 -58 -86.5 -88t-113.5 -30q-79 0 -127 49.5t-48 131.5q0 68 30 125t83.5 92
t123.5 35zM295 629q-57 0 -98.5 -30t-64 -78.5t-22.5 -103.5q0 -68 36 -103.5t100 -35.5q60 0 105.5 29.5t70.5 76.5t25 99q0 64 -39.5 105t-112.5 41z" />
    <glyph glyph-name="zero.tnum" horiz-adv-x="590" 
d="M249 -16q-87 0 -132 62.5t-45 180.5q0 80 21 158.5t60.5 143t94 103t121.5 38.5q87 0 132 -62.5t45 -180.5q0 -80 -21 -158.5t-60.5 -143t-94 -103t-121.5 -38.5zM254 25q56 0 101 37.5t76.5 98t48.5 132t17 139.5q0 197 -132 197q-56 0 -101 -37t-77 -97.5t-49 -132
t-17 -139.5q0 -198 133 -198z" />
    <glyph glyph-name="one.tnum" horiz-adv-x="590" 
d="M267 0l131 595q-46 -30 -102.5 -52.5t-104.5 -32.5l9 39q33 8 72.5 23.5t78.5 36.5t69 45h37l-145 -654h-45z" />
    <glyph glyph-name="two.tnum" horiz-adv-x="590" 
d="M43 0l3 14q12 58 35.5 100t60 74t89.5 62l145 81q63 35 101 80t38 106q0 50 -34.5 81t-96.5 31q-74 0 -125 -42.5t-72 -127.5h-47q22 102 89.5 156.5t158.5 54.5q82 0 128 -42.5t46 -110.5q0 -49 -22.5 -89.5t-60.5 -73.5t-85 -59l-147 -81q-60 -33 -95 -72.5t-52 -99.5
h365l-9 -42h-413z" />
    <glyph glyph-name="three.tnum" horiz-adv-x="590" 
d="M261 -16q-95 0 -150.5 49t-55.5 132v9.5t1 10.5h47q-1 -6 -1 -11v-15q0 -58 42.5 -96t118.5 -38q64 0 105.5 23t61.5 60.5t20 80.5q0 73 -49.5 107t-127.5 34h-14l9 40h44q86 0 137 39t51 105q0 56 -37 85.5t-95 29.5q-72 0 -120 -36t-65 -106h-49q21 91 86 137t150 46
q83 0 130 -42.5t47 -110.5q0 -69 -44 -114.5t-120 -58.5q61 -19 87.5 -58t26.5 -97q0 -55 -27.5 -101.5t-80 -75t-128.5 -28.5z" />
    <glyph glyph-name="four.tnum" horiz-adv-x="590" 
d="M321 0l33 150h-325l10 43l427 461h46l-103 -462h106l-10 -42h-106l-33 -150h-45zM89 192h274l87 390z" />
    <glyph glyph-name="five.tnum" horiz-adv-x="590" 
d="M261 -16q-50 0 -93 17t-69 56t-27 106h47q2 -75 42 -106.5t104 -31.5q63 0 107.5 30.5t68.5 81.5t24 110q0 69 -37 106t-98 37q-48 0 -97.5 -24.5t-79.5 -84.5h-38l113 373h346l-9 -42h-303l-72 -237q31 29 71.5 42.5t76.5 13.5q82 0 128 -48.5t46 -135.5
q0 -73 -31 -132.5t-87.5 -95t-132.5 -35.5z" />
    <glyph glyph-name="six.tnum" horiz-adv-x="590" 
d="M270 -16q-85 0 -136.5 53t-51.5 171q0 61 13 125.5t39 124.5t63.5 108t86.5 76t109 28q80 0 122.5 -47t42.5 -125h-50q0 68 -32.5 99.5t-84.5 31.5q-81 0 -149.5 -77.5t-105.5 -251.5q30 57 85.5 87t113.5 30q80 0 127.5 -49t47.5 -134q0 -68 -30 -124.5t-84 -91
t-126 -34.5zM273 25q60 0 102.5 29t65 76t22.5 102q0 72 -35.5 108t-98.5 36q-62 0 -107.5 -29t-70.5 -75t-25 -99q0 -67 38.5 -107.5t108.5 -40.5z" />
    <glyph glyph-name="seven.tnum" horiz-adv-x="590" 
d="M126 0q45 113 100.5 213t130 197.5t174.5 201.5h-364l9 42h415l-9 -43q-99 -103 -175 -201.5t-132 -199t-95 -210.5h-54z" />
    <glyph glyph-name="eight.tnum" horiz-adv-x="590" 
d="M257 -16q-91 0 -148.5 45t-57.5 125q0 74 48.5 126t125.5 70q-40 18 -62 51t-22 79q0 55 30 98t81.5 67.5t114.5 24.5q84 0 135 -44t51 -114q0 -64 -40 -109.5t-106 -63.5q47 -20 73.5 -58.5t26.5 -90.5q0 -60 -33 -106.5t-89.5 -73t-127.5 -26.5zM332 362q53 0 92.5 20
t61 54t21.5 76q0 56 -40 88t-105 32q-51 0 -90.5 -19.5t-61.5 -53.5t-22 -77q0 -58 40 -89t104 -31zM263 25q58 0 102 21.5t68.5 58.5t24.5 85q0 64 -44 100t-116 36q-58 0 -102 -22t-69 -60t-25 -87q0 -67 45 -99.5t116 -32.5z" />
    <glyph glyph-name="nine.tnum" horiz-adv-x="590" 
d="M348 670q86 0 138.5 -53t52.5 -171q0 -63 -12.5 -128t-37.5 -125t-62.5 -107t-87 -74.5t-110.5 -27.5q-81 0 -123.5 47.5t-42.5 124.5h50q0 -68 33 -99.5t86 -31.5q83 0 151.5 79t102.5 251q-31 -58 -86.5 -88t-113.5 -30q-79 0 -127 49.5t-48 131.5q0 68 30 125t83.5 92
t123.5 35zM343 629q-57 0 -98.5 -30t-64 -78.5t-22.5 -103.5q0 -68 36 -103.5t100 -35.5q60 0 105.5 29.5t70.5 76.5t25 99q0 64 -39.5 105t-112.5 41z" />
    <glyph glyph-name="dollar" unicode="$" horiz-adv-x="590" 
d="M197 -100l22 103q-80 9 -128 51t-48 113v12t1 13h44q-1 -4 -1 -8.5v-8.5q0 -67 40.5 -98t99.5 -38l62 293l-28 8q-58 16 -95 52t-37 98q0 46 26.5 87.5t76.5 67t122 25.5h7l20 90h42l-21 -93q73 -10 113.5 -51t40.5 -116v-9.5t-1 -10.5h-44q1 5 1 9.5v9.5q-1 61 -31.5 92
t-86.5 39l-57 -268l26 -7q59 -17 101 -56.5t42 -104.5q0 -52 -27 -96t-80 -71t-133 -27h-6l-21 -100h-42zM276 379l22 -6l55 260h-8q-83 0 -127 -40.5t-44 -97.5q0 -49 28 -76t74 -40zM339 319l-10 3l-61 -285q97 0 145 44t48 108q0 52 -34.5 84t-87.5 46z" />
    <glyph glyph-name="cent" unicode="&#xa2;" horiz-adv-x="590" 
d="M225 0l15 69q-66 7 -108.5 56.5t-42.5 144.5q0 53 17 106.5t49.5 99t81 74t112.5 32.5l16 78h41l-17 -78q39 -5 72.5 -26.5t54 -57.5t20.5 -85h-45q-2 62 -34 94t-75 37l-94 -438q54 4 98.5 38t71.5 104h44q-26 -86 -87.5 -131.5t-134.5 -49.5l-14 -67h-41zM133 267
q0 -77 33 -115t82 -45l92 437q-51 -5 -90 -31.5t-65 -66t-39 -86t-13 -93.5z" />
    <glyph glyph-name="sterling" unicode="&#xa3;" horiz-adv-x="590" 
d="M405 304h-188v-23v-23q0 -44 -6.5 -87.5t-24.5 -79t-50 -53.5h331l-8 -38h-437l8 38q50 0 78.5 24t42 59.5t17.5 72t4 62.5v24.5v23.5h-84l8 38h75v36q0 82 23.5 148.5t72 105t123.5 38.5q80 0 125 -48t54 -126h-46q-9 64 -44 99t-89 35q-64 0 -102.5 -34.5t-55 -91
t-16.5 -124.5v-38h197z" />
    <glyph glyph-name="currency" unicode="&#xa4;" horiz-adv-x="590" 
d="M119 305q0 45 17 86t47 72l-65 75l31 26l64 -74q28 21 61.5 32.5t70.5 11.5q76 0 123 -41l75 71l25 -28l-76 -71q30 -43 30 -107q0 -45 -17 -85.5t-46 -72.5l65 -75l-31 -26l-64 74q-28 -20 -61.5 -32t-71.5 -12q-75 0 -122 40l-75 -70l-25 28l75 70q-30 44 -30 108z
M158 307q0 -67 37.5 -104.5t98.5 -37.5q52 0 95 25t68.5 68t25.5 98q0 67 -37.5 104.5t-98.5 37.5q-52 0 -95 -25t-68.5 -68t-25.5 -98z" />
    <glyph glyph-name="yen" unicode="&#xa5;" horiz-adv-x="590" 
d="M224 0l30 139h-162l7 34h162l21 97h-161l7 33h144l-125 351h45l118 -346l269 346h48l-278 -351h138l-7 -33h-156l-21 -97h157l-7 -34h-157l-30 -139h-42z" />
    <glyph glyph-name="Euro" unicode="&#x20ac;" horiz-adv-x="590" 
d="M280 -16q-90 0 -140 64.5t-50 178.5v20h-53l7 33h49q4 46 16 92h-45l7 33h48q22 69 61 129.5t95 98t129 37.5q79 0 129.5 -51.5t54.5 -145.5h-44q-3 77 -41.5 118t-101.5 41q-61 0 -107 -32t-78 -84t-51 -111h260l-13 -33h-256q-12 -46 -17 -92h240l-13 -33h-230v-21
q0 -100 38 -152t106 -52q62 0 118.5 37.5t85.5 122.5h42q-34 -99 -99 -148.5t-147 -49.5z" />
    <glyph glyph-name="uni20BA" unicode="&#x20ba;" horiz-adv-x="590" 
d="M69 266l88 31l21 98l-89 -32l8 38l89 32l47 221h43l-44 -205l211 75l-8 -38l-211 -75l-20 -97l211 75l-8 -38l-211 -75l-51 -237h82q107 0 170 60.5t89 182.5h45q-34 -143 -106 -212.5t-206 -69.5h-125l55 260l-89 -32z" />
    <glyph glyph-name="uni20B9" unicode="&#x20b9;" horiz-adv-x="590" 
d="M159 487h278v11q0 52 -37 84.5t-119 32.5h-95l8 39h420l-15 -39h-172q29 -21 42.5 -51.5t13.5 -67.5v-9h96l-16 -39h-85q-12 -53 -49 -90.5t-91 -56.5t-119 -19h-53l235 -282h-50l-236 282l8 39h93q51 0 95.5 13t76 41t43.5 73h-281z" />
    <glyph glyph-name="asciicircum" unicode="^" horiz-adv-x="590" 
d="M146 342l225 318h32l79 -318h-45l-62 261l-181 -261h-48z" />
    <glyph glyph-name="plus" unicode="+" horiz-adv-x="590" 
d="M241 117l45 193h-179l9 40h179l44 192h42l-44 -192h179l-9 -40h-179l-45 -193h-42z" />
    <glyph glyph-name="minus" unicode="&#x2212;" horiz-adv-x="590" 
d="M107 310l8 40h400l-8 -40h-400z" />
    <glyph glyph-name="equal" unicode="=" horiz-adv-x="590" 
d="M82 195l8 40h400l-8 -40h-400zM129 405l8 40h400l-8 -40h-400z" />
    <glyph glyph-name="divide" unicode="&#xf7;" horiz-adv-x="590" 
d="M343 461q-18 0 -28 9.5t-10 25.5q0 20 13.5 33.5t32.5 13.5q18 0 28 -9.5t10 -25.5q0 -20 -13.5 -33.5t-32.5 -13.5zM107 311l8 39h400l-8 -39h-400zM271 118q-18 0 -28 9.5t-10 25.5q0 20 13.5 33.5t32.5 13.5q18 0 28 -9.5t10 -25.5q0 -20 -13.5 -33.5t-32.5 -13.5z
" />
    <glyph glyph-name="less" unicode="&#x3c;" horiz-adv-x="590" 
d="M451 125l-361 185l8 40l443 181l-9 -45l-391 -158l319 -160z" />
    <glyph glyph-name="greater" unicode="&#x3e;" horiz-adv-x="590" 
d="M164 531l361 -185l-8 -40l-443 -181l9 45l391 158l-319 160z" />
    <glyph glyph-name="asciitilde" unicode="~" horiz-adv-x="590" 
d="M100 235q16 69 46 109.5t76 40.5q32 0 52 -15.5t48 -47.5q22 -24 36 -35.5t31 -11.5q24 0 46 29t33 85h41q-15 -66 -44.5 -108t-76.5 -42q-30 0 -52.5 15.5t-48.5 47.5q-19 22 -34 34.5t-34 12.5q-23 0 -45 -29t-33 -85h-41z" />
    <glyph glyph-name="logicalnot" unicode="&#xac;" horiz-adv-x="590" 
d="M439 208l37 163h-359l8 39h400l-46 -202h-40z" />
    <glyph glyph-name="multiply" unicode="&#xd7;" horiz-adv-x="590" 
d="M115 148l-24 31l187 154l-122 155l32 25l121 -154l187 154l24 -31l-187 -154l122 -155l-32 -25l-121 154z" />
    <glyph glyph-name="numbersign" unicode="#" horiz-adv-x="590" 
d="M46 0l77 194h-102l10 42h109l79 199h-110l10 42h116l77 193h44l-77 -193h171l77 193h44l-77 -193h106l-10 -42h-112l-79 -199h115l-10 -42h-122l-77 -194h-44l77 194h-171l-77 -194h-44zM184 236h171l79 199h-171z" />
    <glyph glyph-name="zero.dnom" horiz-adv-x="345" 
d="M120 -10q-56 0 -84.5 38t-28.5 110q0 48 13 95t37.5 85t59 61t77.5 23q56 0 84.5 -38t28.5 -110q0 -48 -13 -95t-37.5 -85t-59 -61t-77.5 -23zM124 22q32 0 58.5 21.5t45 56.5t28.5 76.5t10 80.5q0 113 -76 113q-32 0 -58.5 -21.5t-45 -56.5t-28.5 -76.5t-10 -80.5
q0 -113 76 -113z" />
    <glyph glyph-name="one.dnom" horiz-adv-x="240" 
d="M67 0l79 343q-29 -16 -62.5 -28t-61.5 -17l8 33q31 7 68.5 23t66.5 38h31l-90 -392h-39z" />
    <glyph glyph-name="two.dnom" horiz-adv-x="335" 
d="M-13 0l2 9q12 53 38 86.5t78 61.5l86 46q41 22 62 45.5t21 58.5q0 29 -19.5 46t-56.5 17q-40 0 -70.5 -24t-41.5 -74h-39q13 62 55.5 96t96.5 34q55 0 85.5 -26.5t30.5 -70.5q0 -41 -28 -72t-76 -56l-88 -47q-39 -20 -58 -42t-28 -55h219l-7 -33h-262z" />
    <glyph glyph-name="three.dnom" horiz-adv-x="335" 
d="M126 -10q-60 0 -95.5 30t-35.5 80q0 7 1 13h39q-1 -6 -1 -16q0 -33 24.5 -54t67.5 -21q52 0 80.5 29.5t28.5 66.5q0 39 -28.5 57.5t-74.5 18.5h-10l6 28h28q50 0 79.5 22.5t29.5 62.5q0 30 -20.5 46.5t-55.5 16.5q-41 0 -68.5 -20t-37.5 -59h-39q13 55 52.5 83t92.5 28
q55 0 85.5 -26t30.5 -70q0 -38 -26 -65t-68 -37q34 -12 49 -35t15 -54q0 -33 -18 -61.5t-51.5 -46t-79.5 -17.5z" />
    <glyph glyph-name="four.dnom" horiz-adv-x="336" 
d="M168 0l20 87h-199l7 30l264 275h36l-62 -272h62l-8 -33h-62l-20 -87h-38zM40 120h155l49 211z" />
    <glyph glyph-name="five.dnom" horiz-adv-x="335" 
d="M124 -10q-50 0 -84.5 25t-35.5 84h39q1 -41 24 -59t60 -18q36 0 62 18.5t40 48t14 61.5q0 38 -21.5 58.5t-56.5 20.5q-29 0 -57.5 -14t-45.5 -47h-31l69 224h220l-7 -33h-186l-41 -131q19 16 42.5 23.5t46.5 7.5q49 0 78.5 -28.5t29.5 -80.5q0 -43 -20 -79.5t-55.5 -58.5
t-83.5 -22z" />
    <glyph glyph-name="six.dnom" horiz-adv-x="330" 
d="M132 -10q-53 0 -86.5 33.5t-33.5 106.5q0 44 13 91.5t38 88.5t61.5 66.5t83.5 25.5q48 0 75 -28t28 -75h-41q-1 36 -18.5 53.5t-46.5 17.5q-45 0 -86 -43.5t-63 -139.5q20 32 52 48.5t65 16.5q49 0 79.5 -29.5t30.5 -81.5q0 -41 -19 -75t-53 -55t-79 -21zM131 22
q35 0 60.5 16.5t38.5 43t13 55.5q0 43 -20.5 64t-55.5 21q-37 0 -63 -17t-40.5 -43.5t-14.5 -54.5q0 -40 22 -62.5t60 -22.5z" />
    <glyph glyph-name="seven.dnom" horiz-adv-x="288" 
d="M11 0q37 101 95 185t151 174h-220l7 33h262l-7 -34q-92 -90 -151.5 -175t-92.5 -183h-44z" />
    <glyph glyph-name="eight.dnom" horiz-adv-x="340" 
d="M127 -10q-55 0 -92.5 27t-37.5 76q0 44 29.5 75.5t76.5 42.5q-24 11 -37.5 30.5t-13.5 46.5q0 33 19 58.5t51.5 40.5t72.5 15q53 0 86 -26t33 -69q0 -38 -24.5 -65t-66.5 -38q29 -12 45.5 -35t16.5 -54q0 -36 -21 -64.5t-56.5 -44.5t-80.5 -16zM173 220q47 0 74 25t27 61
q0 32 -22.5 50t-59.5 18q-45 0 -72.5 -25.5t-27.5 -60.5q0 -34 22.5 -51t58.5 -17zM131 20q50 0 81 28t31 69q0 37 -25 57t-66 20q-50 0 -81.5 -28.5t-31.5 -70.5q0 -38 25.5 -56.5t66.5 -18.5z" />
    <glyph glyph-name="nine.dnom" horiz-adv-x="330" 
d="M180 402q53 0 86.5 -33.5t33.5 -107.5q0 -44 -12 -91.5t-36.5 -88t-61 -66t-85.5 -25.5t-76 28t-28 75h41q1 -36 19 -53.5t47 -17.5q47 0 88 43t61 141q-20 -33 -52 -49.5t-66 -16.5q-49 0 -79.5 29.5t-30.5 81.5q0 41 19.5 75t53.5 55t78 21zM181 370q-35 0 -60.5 -16.5
t-38.5 -43t-13 -55.5q0 -43 20.5 -64t55.5 -21q37 0 63 16.5t40.5 42.5t14.5 56q0 40 -22 62.5t-60 22.5z" />
    <glyph glyph-name="zero.numr" horiz-adv-x="345" 
d="M176 258q-56 0 -84.5 38t-28.5 110q0 48 13 95t37.5 85t59 61t77.5 23q56 0 84.5 -38t28.5 -110q0 -48 -13 -95t-37.5 -85t-59 -61t-77.5 -23zM180 290q32 0 58.5 21.5t45 56.5t28.5 76.5t10 80.5q0 113 -76 113q-32 0 -58.5 -21.5t-45 -56.5t-28.5 -76.5t-10 -80.5
q0 -113 76 -113z" />
    <glyph glyph-name="one.numr" horiz-adv-x="240" 
d="M122 268l79 343q-29 -16 -62.5 -28t-61.5 -17l8 33q31 7 68.5 23t66.5 38h31l-90 -392h-39z" />
    <glyph glyph-name="two.numr" horiz-adv-x="335" 
d="M33 268l2 9q12 53 38 86.5t78 61.5l86 46q41 22 62 45.5t21 58.5q0 29 -19.5 46t-56.5 17q-40 0 -70.5 -24t-41.5 -74h-39q13 62 55.5 96t96.5 34q55 0 85.5 -26.5t30.5 -70.5q0 -41 -28 -72t-76 -56l-88 -47q-39 -20 -58 -42t-28 -55h219l-7 -33h-262z" />
    <glyph glyph-name="three.numr" horiz-adv-x="335" 
d="M191 258q-60 0 -95.5 30t-35.5 80q0 7 1 13h39q-1 -6 -1 -16q0 -33 24.5 -54t67.5 -21q52 0 80.5 29.5t28.5 66.5q0 39 -28.5 57.5t-74.5 18.5h-10l6 28h28q50 0 79.5 22.5t29.5 62.5q0 30 -20.5 46.5t-55.5 16.5q-41 0 -68.5 -20t-37.5 -59h-39q13 55 52.5 83t92.5 28
q55 0 85.5 -26t30.5 -70q0 -38 -26 -65t-68 -37q34 -12 49 -35t15 -54q0 -33 -18 -61.5t-51.5 -46t-79.5 -17.5z" />
    <glyph glyph-name="four.numr" horiz-adv-x="336" 
d="M214 268l20 87h-199l7 30l264 275h36l-62 -272h62l-8 -33h-62l-20 -87h-38zM86 388h155l49 211z" />
    <glyph glyph-name="five.numr" horiz-adv-x="335" 
d="M180 258q-50 0 -84.5 25t-35.5 84h39q1 -41 24 -59t60 -18q36 0 62 18.5t40 48t14 61.5q0 38 -21.5 58.5t-56.5 20.5q-29 0 -57.5 -14t-45.5 -47h-31l69 224h220l-7 -33h-186l-41 -131q19 16 42.5 23.5t46.5 7.5q49 0 78.5 -28.5t29.5 -80.5q0 -43 -20 -79.5t-55.5 -58.5
t-83.5 -22z" />
    <glyph glyph-name="six.numr" horiz-adv-x="330" 
d="M185 258q-53 0 -86.5 33.5t-33.5 106.5q0 44 13 91.5t38 88.5t61.5 66.5t83.5 25.5q48 0 75 -28t28 -75h-41q-1 36 -18.5 53.5t-46.5 17.5q-45 0 -86 -43.5t-63 -139.5q20 32 52 48.5t65 16.5q49 0 79.5 -29.5t30.5 -81.5q0 -41 -19 -75t-53 -55t-79 -21zM184 290
q35 0 60.5 16.5t38.5 43t13 55.5q0 43 -20.5 64t-55.5 21q-37 0 -63 -17t-40.5 -43.5t-14.5 -54.5q0 -40 22 -62.5t60 -22.5z" />
    <glyph glyph-name="seven.numr" horiz-adv-x="288" 
d="M65 268q37 101 95 185t151 174h-220l7 33h262l-7 -34q-92 -90 -151.5 -175t-92.5 -183h-44z" />
    <glyph glyph-name="eight.numr" horiz-adv-x="340" 
d="M180 258q-55 0 -92.5 27t-37.5 76q0 44 29.5 75.5t76.5 42.5q-24 11 -37.5 30.5t-13.5 46.5q0 33 19 58.5t51.5 40.5t72.5 15q53 0 86 -26t33 -69q0 -38 -24.5 -65t-66.5 -38q29 -12 45.5 -35t16.5 -54q0 -36 -21 -64.5t-56.5 -44.5t-80.5 -16zM226 488q47 0 74 25t27 61
q0 32 -22.5 50t-59.5 18q-45 0 -72.5 -25.5t-27.5 -60.5q0 -34 22.5 -51t58.5 -17zM184 288q50 0 81 28t31 69q0 37 -25 57t-66 20q-50 0 -81.5 -28.5t-31.5 -70.5q0 -38 25.5 -56.5t66.5 -18.5z" />
    <glyph glyph-name="nine.numr" horiz-adv-x="330" 
d="M239 670q53 0 86.5 -33.5t33.5 -107.5q0 -44 -12 -91.5t-36.5 -88t-61 -66t-85.5 -25.5t-76 28t-28 75h41q1 -36 19 -53.5t47 -17.5q47 0 88 43t61 141q-20 -33 -52 -49.5t-66 -16.5q-49 0 -79.5 29.5t-30.5 81.5q0 41 19.5 75t53.5 55t78 21zM240 638q-35 0 -60.5 -16.5
t-38.5 -43t-13 -55.5q0 -43 20.5 -64t55.5 -21q37 0 63 16.5t40.5 42.5t14.5 56q0 40 -22 62.5t-60 22.5z" />
    <glyph glyph-name="uni2080" unicode="&#x2080;" horiz-adv-x="345" 
d="M99 -110q-56 0 -84.5 38t-28.5 110q0 48 13 95t37.5 85t59 61t77.5 23q56 0 84.5 -38t28.5 -110q0 -48 -13 -95t-37.5 -85t-59 -61t-77.5 -23zM103 -78q32 0 58.5 21.5t45 56.5t28.5 76.5t10 80.5q0 113 -76 113q-32 0 -58.5 -21.5t-45 -56.5t-28.5 -76.5t-10 -80.5
q0 -113 76 -113z" />
    <glyph glyph-name="uni2081" unicode="&#x2081;" horiz-adv-x="240" 
d="M50 -100l79 343q-29 -16 -62.5 -28t-61.5 -17l8 33q31 7 68.5 23t66.5 38h31l-90 -392h-39z" />
    <glyph glyph-name="uni2082" unicode="&#x2082;" horiz-adv-x="335" 
d="M-33 -100l2 9q12 53 38 86.5t78 61.5l86 46q41 22 62 45.5t21 58.5q0 29 -19.5 46t-56.5 17q-40 0 -70.5 -24t-41.5 -74h-39q13 62 55.5 96t96.5 34q55 0 85.5 -26.5t30.5 -70.5q0 -41 -28 -72t-76 -56l-88 -47q-39 -20 -58 -42t-28 -55h219l-7 -33h-262z" />
    <glyph glyph-name="uni2083" unicode="&#x2083;" horiz-adv-x="335" 
d="M115 -110q-60 0 -95.5 30t-35.5 80q0 7 1 13h39q-1 -6 -1 -16q0 -33 24.5 -54t67.5 -21q52 0 80.5 29.5t28.5 66.5q0 39 -28.5 57.5t-74.5 18.5h-10l6 28h28q50 0 79.5 22.5t29.5 62.5q0 30 -20.5 46.5t-55.5 16.5q-41 0 -68.5 -20t-37.5 -59h-39q13 55 52.5 83t92.5 28
q55 0 85.5 -26t30.5 -70q0 -38 -26 -65t-68 -37q34 -12 49 -35t15 -54q0 -33 -18 -61.5t-51.5 -46t-79.5 -17.5z" />
    <glyph glyph-name="uni2084" unicode="&#x2084;" horiz-adv-x="336" 
d="M150 -100l20 87h-199l7 30l264 275h36l-62 -272h62l-8 -33h-62l-20 -87h-38zM22 20h155l49 211z" />
    <glyph glyph-name="uni2085" unicode="&#x2085;" horiz-adv-x="335" 
d="M106 -110q-50 0 -84.5 25t-35.5 84h39q1 -41 24 -59t60 -18q36 0 62 18.5t40 48t14 61.5q0 38 -21.5 58.5t-56.5 20.5q-29 0 -57.5 -14t-45.5 -47h-31l69 224h220l-7 -33h-186l-41 -131q19 16 42.5 23.5t46.5 7.5q49 0 78.5 -28.5t29.5 -80.5q0 -43 -20 -79.5
t-55.5 -58.5t-83.5 -22z" />
    <glyph glyph-name="uni2086" unicode="&#x2086;" horiz-adv-x="330" 
d="M113 -110q-53 0 -86.5 33.5t-33.5 106.5q0 44 13 91.5t38 88.5t61.5 66.5t83.5 25.5q48 0 75 -28t28 -75h-41q-1 36 -18.5 53.5t-46.5 17.5q-45 0 -86 -43.5t-63 -139.5q20 32 52 48.5t65 16.5q49 0 79.5 -29.5t30.5 -81.5q0 -41 -19 -75t-53 -55t-79 -21zM112 -78
q35 0 60.5 16.5t38.5 43t13 55.5q0 43 -20.5 64t-55.5 21q-37 0 -63 -17t-40.5 -43.5t-14.5 -54.5q0 -40 22 -62.5t60 -22.5z" />
    <glyph glyph-name="uni2087" unicode="&#x2087;" horiz-adv-x="288" 
d="M-4 -100q37 101 95 185t151 174h-220l7 33h262l-7 -34q-92 -90 -151.5 -175t-92.5 -183h-44z" />
    <glyph glyph-name="uni2088" unicode="&#x2088;" horiz-adv-x="340" 
d="M107 -110q-55 0 -92.5 27t-37.5 76q0 44 29.5 75.5t76.5 42.5q-24 11 -37.5 30.5t-13.5 46.5q0 33 19 58.5t51.5 40.5t72.5 15q53 0 86 -26t33 -69q0 -38 -24.5 -65t-66.5 -38q29 -12 45.5 -35t16.5 -54q0 -36 -21 -64.5t-56.5 -44.5t-80.5 -16zM153 120q47 0 74 25
t27 61q0 32 -22.5 50t-59.5 18q-45 0 -72.5 -25.5t-27.5 -60.5q0 -34 22.5 -51t58.5 -17zM111 -80q50 0 81 28t31 69q0 37 -25 57t-66 20q-50 0 -81.5 -28.5t-31.5 -70.5q0 -38 25.5 -56.5t66.5 -18.5z" />
    <glyph glyph-name="uni2089" unicode="&#x2089;" horiz-adv-x="330" 
d="M163 302q53 0 86.5 -33.5t33.5 -107.5q0 -44 -12 -91.5t-36.5 -88t-61 -66t-85.5 -25.5t-76 28t-28 75h41q1 -36 19 -53.5t47 -17.5q47 0 88 43t61 141q-20 -33 -52 -49.5t-66 -16.5q-49 0 -79.5 29.5t-30.5 81.5q0 41 19.5 75t53.5 55t78 21zM164 270q-35 0 -60.5 -16.5
t-38.5 -43t-13 -55.5q0 -43 20.5 -64t55.5 -21q37 0 63 16.5t40.5 42.5t14.5 56q0 40 -22 62.5t-60 22.5z" />
    <glyph glyph-name="uni2070" unicode="&#x2070;" horiz-adv-x="345" 
d="M196 368q-56 0 -84.5 38t-28.5 110q0 48 13 95t37.5 85t59 61t77.5 23q56 0 84.5 -38t28.5 -110q0 -48 -13 -95t-37.5 -85t-59 -61t-77.5 -23zM200 400q32 0 58.5 21.5t45 56.5t28.5 76.5t10 80.5q0 113 -76 113q-32 0 -58.5 -21.5t-45 -56.5t-28.5 -76.5t-10 -80.5
q0 -113 76 -113z" />
    <glyph glyph-name="uni00B9" unicode="&#xb9;" horiz-adv-x="240" 
d="M130 378l79 343q-29 -16 -62.5 -28t-61.5 -17l8 33q31 7 68.5 23t66.5 38h31l-90 -392h-39z" />
    <glyph glyph-name="uni00B2" unicode="&#xb2;" horiz-adv-x="335" 
d="M60 378l2 9q12 53 38 86.5t78 61.5l86 46q41 22 62 45.5t21 58.5q0 29 -19.5 46t-56.5 17q-40 0 -70.5 -24t-41.5 -74h-39q13 62 55.5 96t96.5 34q55 0 85.5 -26.5t30.5 -70.5q0 -41 -28 -72t-76 -56l-88 -47q-39 -20 -58 -42t-28 -55h219l-7 -33h-262z" />
    <glyph glyph-name="uni00B3" unicode="&#xb3;" horiz-adv-x="335" 
d="M209 368q-60 0 -95.5 30t-35.5 80q0 7 1 13h39q-1 -6 -1 -16q0 -33 24.5 -54t67.5 -21q52 0 80.5 29.5t28.5 66.5q0 39 -28.5 57.5t-74.5 18.5h-10l6 28h28q50 0 79.5 22.5t29.5 62.5q0 30 -20.5 46.5t-55.5 16.5q-41 0 -68.5 -20t-37.5 -59h-39q13 55 52.5 83t92.5 28
q55 0 85.5 -26t30.5 -70q0 -38 -26 -65t-68 -37q34 -12 49 -35t15 -54q0 -33 -18 -61.5t-51.5 -46t-79.5 -17.5z" />
    <glyph glyph-name="uni2074" unicode="&#x2074;" horiz-adv-x="336" 
d="M245 378l20 87h-199l7 30l264 275h36l-62 -272h62l-8 -33h-62l-20 -87h-38zM117 498h155l49 211z" />
    <glyph glyph-name="uni2075" unicode="&#x2075;" horiz-adv-x="335" 
d="M206 368q-50 0 -84.5 25t-35.5 84h39q1 -41 24 -59t60 -18q36 0 62 18.5t40 48t14 61.5q0 38 -21.5 58.5t-56.5 20.5q-29 0 -57.5 -14t-45.5 -47h-31l69 224h220l-7 -33h-186l-41 -131q19 16 42.5 23.5t46.5 7.5q49 0 78.5 -28.5t29.5 -80.5q0 -43 -20 -79.5t-55.5 -58.5
t-83.5 -22z" />
    <glyph glyph-name="uni2076" unicode="&#x2076;" horiz-adv-x="330" 
d="M210 368q-53 0 -86.5 33.5t-33.5 106.5q0 44 13 91.5t38 88.5t61.5 66.5t83.5 25.5q48 0 75 -28t28 -75h-41q-1 36 -18.5 53.5t-46.5 17.5q-45 0 -86 -43.5t-63 -139.5q20 32 52 48.5t65 16.5q49 0 79.5 -29.5t30.5 -81.5q0 -41 -19 -75t-53 -55t-79 -21zM209 400
q35 0 60.5 16.5t38.5 43t13 55.5q0 43 -20.5 64t-55.5 21q-37 0 -63 -17t-40.5 -43.5t-14.5 -54.5q0 -40 22 -62.5t60 -22.5z" />
    <glyph glyph-name="uni2077" unicode="&#x2077;" horiz-adv-x="288" 
d="M90 378q37 101 95 185t151 174h-220l7 33h262l-7 -34q-92 -90 -151.5 -175t-92.5 -183h-44z" />
    <glyph glyph-name="uni2078" unicode="&#x2078;" horiz-adv-x="340" 
d="M201 368q-55 0 -92.5 27t-37.5 76q0 44 29.5 75.5t76.5 42.5q-24 11 -37.5 30.5t-13.5 46.5q0 33 19 58.5t51.5 40.5t72.5 15q53 0 86 -26t33 -69q0 -38 -24.5 -65t-66.5 -38q29 -12 45.5 -35t16.5 -54q0 -36 -21 -64.5t-56.5 -44.5t-80.5 -16zM247 598q47 0 74 25t27 61
q0 32 -22.5 50t-59.5 18q-45 0 -72.5 -25.5t-27.5 -60.5q0 -34 22.5 -51t58.5 -17zM205 398q50 0 81 28t31 69q0 37 -25 57t-66 20q-50 0 -81.5 -28.5t-31.5 -70.5q0 -38 25.5 -56.5t66.5 -18.5z" />
    <glyph glyph-name="uni2079" unicode="&#x2079;" horiz-adv-x="330" 
d="M270 780q53 0 86.5 -33.5t33.5 -107.5q0 -44 -12 -91.5t-36.5 -88t-61 -66t-85.5 -25.5t-76 28t-28 75h41q1 -36 19 -53.5t47 -17.5q47 0 88 43t61 141q-20 -33 -52 -49.5t-66 -16.5q-49 0 -79.5 29.5t-30.5 81.5q0 41 19.5 75t53.5 55t78 21zM271 748q-35 0 -60.5 -16.5
t-38.5 -43t-13 -55.5q0 -43 20.5 -64t55.5 -21q37 0 63 16.5t40.5 42.5t14.5 56q0 40 -22 62.5t-60 22.5z" />
    <glyph glyph-name="fraction" unicode="&#x2044;" horiz-adv-x="131" 
d="M-181 0l484 660h45l-484 -660h-45z" />
    <glyph glyph-name="percent" unicode="%" horiz-adv-x="879" 
d="M189 0l484 660h45l-484 -660h-45zM654 -10q-56 0 -84.5 38t-28.5 110q0 48 13 95t37.5 85t59 61t77.5 23q56 0 84.5 -38t28.5 -110q0 -48 -13 -95t-37.5 -85t-59 -61t-77.5 -23zM658 22q32 0 58.5 21.5t45 56.5t28.5 76.5t10 80.5q0 113 -76 113q-32 0 -58.5 -21.5
t-45 -56.5t-28.5 -76.5t-10 -80.5q0 -113 76 -113zM176 260q-56 0 -84.5 38t-28.5 110q0 48 13 95t37.5 85t59 61t77.5 23q56 0 84.5 -38t28.5 -110q0 -48 -13 -95t-37.5 -85t-59 -61t-77.5 -23zM180 292q32 0 58.5 21.5t45 56.5t28.5 76.5t10 80.5q0 113 -76 113
q-32 0 -58.5 -21.5t-45 -56.5t-28.5 -76.5t-10 -80.5q0 -113 76 -113z" />
    <glyph glyph-name="perthousand" unicode="&#x2030;" horiz-adv-x="1224" 
d="M189 0l484 660h45l-484 -660h-45zM654 -10q-56 0 -84.5 38t-28.5 110q0 48 13 95t37.5 85t59 61t77.5 23q56 0 84.5 -38t28.5 -110q0 -48 -13 -95t-37.5 -85t-59 -61t-77.5 -23zM658 22q32 0 58.5 21.5t45 56.5t28.5 76.5t10 80.5q0 113 -76 113q-32 0 -58.5 -21.5
t-45 -56.5t-28.5 -76.5t-10 -80.5q0 -113 76 -113zM999 -10q-56 0 -84.5 38t-28.5 110q0 48 13 95t37.5 85t59 61t77.5 23q56 0 84.5 -38t28.5 -110q0 -48 -13 -95t-37.5 -85t-59 -61t-77.5 -23zM1003 22q32 0 58.5 21.5t45 56.5t28.5 76.5t10 80.5q0 113 -76 113
q-32 0 -58.5 -21.5t-45 -56.5t-28.5 -76.5t-10 -80.5q0 -113 76 -113zM176 260q-56 0 -84.5 38t-28.5 110q0 48 13 95t37.5 85t59 61t77.5 23q56 0 84.5 -38t28.5 -110q0 -48 -13 -95t-37.5 -85t-59 -61t-77.5 -23zM180 292q32 0 58.5 21.5t45 56.5t28.5 76.5t10 80.5
q0 113 -76 113q-32 0 -58.5 -21.5t-45 -56.5t-28.5 -76.5t-10 -80.5q0 -113 76 -113z" />
    <glyph glyph-name="onehalf" unicode="&#xbd;" horiz-adv-x="743" 
d="M82 0l484 660h45l-484 -660h-45zM395 0l2 9q12 53 38 86.5t78 61.5l86 46q41 22 62 45.5t21 58.5q0 29 -19.5 46t-56.5 17q-40 0 -70.5 -24t-41.5 -74h-39q13 62 55.5 96t96.5 34q55 0 85.5 -26.5t30.5 -70.5q0 -41 -28 -72t-76 -56l-88 -47q-39 -20 -58 -42t-28 -55h219
l-7 -33h-262zM122 268l79 343q-29 -16 -62.5 -28t-61.5 -17l8 33q31 7 68.5 23t66.5 38h31l-90 -392h-39z" />
    <glyph glyph-name="onequarter" unicode="&#xbc;" horiz-adv-x="696" 
d="M82 0l484 660h45l-484 -660h-45zM528 0l20 87h-199l7 30l264 275h36l-62 -272h62l-8 -33h-62l-20 -87h-38zM400 120h155l49 211zM122 268l79 343q-29 -16 -62.5 -28t-61.5 -17l8 33q31 7 68.5 23t66.5 38h31l-90 -392h-39z" />
    <glyph glyph-name="threequarters" unicode="&#xbe;" horiz-adv-x="786" 
d="M172 0l484 660h45l-484 -660h-45zM618 0l20 87h-199l7 30l264 275h36l-62 -272h62l-8 -33h-62l-20 -87h-38zM490 120h155l49 211zM191 258q-60 0 -95.5 30t-35.5 80q0 7 1 13h39q-1 -6 -1 -16q0 -33 24.5 -54t67.5 -21q52 0 80.5 29.5t28.5 66.5q0 39 -28.5 57.5
t-74.5 18.5h-10l6 28h28q50 0 79.5 22.5t29.5 62.5q0 30 -20.5 46.5t-55.5 16.5q-41 0 -68.5 -20t-37.5 -59h-39q13 55 52.5 83t92.5 28q55 0 85.5 -26t30.5 -70q0 -38 -26 -65t-68 -37q34 -12 49 -35t15 -54q0 -33 -18 -61.5t-51.5 -46t-79.5 -17.5z" />
    <glyph glyph-name="A" unicode="A" horiz-adv-x="593" 
d="M-22 0l382 670h52l99 -670h-45l-26 181h-311l-102 -181h-49zM151 220h284l-57 404z" />
    <glyph glyph-name="B" unicode="B" horiz-adv-x="586" 
d="M41 0l143 670h179q75 0 119 -19.5t62.5 -53t18.5 -73.5q0 -70 -46 -116.5t-124 -61.5q70 -13 102 -50t32 -93q0 -57 -31.5 -103t-92 -73t-148.5 -27h-214zM361 632h-138l-58 -269h127q105 0 164 41.5t59 115.5q0 53 -35.5 82.5t-118.5 29.5zM291 325h-134l-61 -287h159
q109 0 165.5 44.5t56.5 116.5q0 64 -45.5 95t-140.5 31z" />
    <glyph glyph-name="C" unicode="C" horiz-adv-x="659" 
d="M312 -16q-121 0 -185 72t-64 202q0 84 26 161t73.5 137t112 95t142.5 35q62 0 117 -24.5t89 -76t34 -131.5h-51q0 52 -21.5 95.5t-64 69.5t-105.5 26q-70 0 -125.5 -33t-94.5 -88t-60 -124t-21 -141q0 -114 52.5 -174t151.5 -60q88 0 148 47t94 138h52
q-40 -112 -117.5 -169t-182.5 -57z" />
    <glyph glyph-name="D" unicode="D" horiz-adv-x="673" 
d="M41 0l143 670h190q140 0 206.5 -72t66.5 -194q0 -84 -29 -157.5t-83.5 -128.5t-131.5 -86.5t-173 -31.5h-189zM362 630h-139l-126 -590h136q113 0 194.5 48t125 130t43.5 184q0 109 -55 168.5t-179 59.5z" />
    <glyph glyph-name="E" unicode="E" horiz-adv-x="533" 
d="M41 0l143 670h380l-9 -39h-332l-59 -276h305l-8 -37h-305l-60 -279h338l-8 -39h-385z" />
    <glyph glyph-name="F" unicode="F" horiz-adv-x="536" 
d="M41 0l142 670h401l-8 -39h-354l-61 -285h304l-9 -38h-303l-65 -308h-47z" />
    <glyph glyph-name="G" unicode="G" horiz-adv-x="685" 
d="M324 -16q-128 0 -194.5 72.5t-66.5 204.5q0 85 26.5 161.5t74.5 136t114 93.5t145 34q64 0 119.5 -24.5t90 -76t34.5 -131.5h-51q0 52 -22 95.5t-65.5 69.5t-107.5 26q-71 0 -127.5 -32t-96.5 -86.5t-61.5 -123.5t-21.5 -142q0 -116 54.5 -176t159.5 -60q114 0 180 69
t87 192h-204l8 39h253l-5 -29q-16 -94 -55.5 -164t-105.5 -109t-162 -39z" />
    <glyph glyph-name="H" unicode="H" horiz-adv-x="662" 
d="M41 0l143 670h47l-67 -315h381l67 315h47l-143 -670h-47l67 316h-381l-67 -316h-47z" />
    <glyph glyph-name="I" unicode="I" horiz-adv-x="234" 
d="M41 0l143 670h47l-143 -670h-47z" />
    <glyph glyph-name="J" unicode="J" horiz-adv-x="556" 
d="M210 -16q-87 0 -135 43.5t-48 128.5q0 30 6 64h48q-2 -16 -3.5 -32t-1.5 -29q0 -69 37 -101t98 -32q64 0 108 31t71.5 85t42.5 125l86 403h47l-86 -408q-18 -83 -50.5 -145.5t-86 -97.5t-133.5 -35z" />
    <glyph glyph-name="K" unicode="K" horiz-adv-x="572" 
d="M41 0l143 670h47l-67 -316l402 316h65l-426 -331q119 -37 193.5 -124t104.5 -215h-49q-28 123 -106.5 206.5t-192.5 108.5l-67 -315h-47z" />
    <glyph glyph-name="L" unicode="L" horiz-adv-x="498" 
d="M41 0l143 670h47l-135 -630h326l-9 -40h-372z" />
    <glyph glyph-name="M" unicode="M" horiz-adv-x="790" 
d="M-1 0l238 670h57l68 -544l322 544h57l-70 -670h-48l63 600l-321 -541h-35l-69 547l-216 -606h-46z" />
    <glyph glyph-name="N" unicode="N" horiz-adv-x="674" 
d="M41 0l142 670h48l266 -601l127 601h47l-142 -670h-48l-266 601l-127 -601h-47z" />
    <glyph glyph-name="O" unicode="O" horiz-adv-x="703" 
d="M315 -16q-123 0 -187.5 77.5t-64.5 206.5q0 82 25.5 157t73 134t113.5 93t148 34t138.5 -36t86 -101t29.5 -152q0 -79 -25 -153t-72.5 -132.5t-114 -93t-150.5 -34.5zM318 25q72 0 129 31.5t97 85.5t61 122t21 141q0 113 -54 176.5t-150 63.5q-75 0 -132.5 -33
t-96.5 -88.5t-59 -123t-20 -136.5q0 -110 53.5 -174.5t150.5 -64.5z" />
    <glyph glyph-name="P" unicode="P" horiz-adv-x="556" 
d="M41 0l143 670h194q94 0 141.5 -45.5t47.5 -120.5q0 -64 -32 -115.5t-92.5 -81.5t-147.5 -30h-148l-59 -277h-47zM364 631h-142l-67 -315h144q70 0 118.5 24t74 66t25.5 95q0 64 -39.5 97t-113.5 33z" />
    <glyph glyph-name="Q" unicode="Q" horiz-adv-x="703" 
d="M547 -72l-11 -52q-98 5 -150.5 32t-78.5 76q-119 3 -181.5 80t-62.5 204q0 82 25.5 157t73 134t113.5 93t148 34t138.5 -36t86 -101t29.5 -152q0 -75 -23 -146t-66 -128.5t-104 -94t-138 -43.5q34 -32 83 -44.5t118 -12.5zM318 25q72 0 129 31.5t97 85.5t61 122t21 141
q0 113 -54 176.5t-150 63.5q-75 0 -132.5 -33t-96.5 -88.5t-59 -123t-20 -136.5q0 -110 53.5 -174.5t150.5 -64.5z" />
    <glyph glyph-name="R" unicode="R" horiz-adv-x="586" 
d="M41 0l143 670h186q110 0 158 -44t48 -115q0 -85 -62.5 -141.5t-183.5 -63.5q68 -24 110.5 -95.5t59.5 -210.5h-50q-14 118 -45 183t-83 90.5t-128 25.5h-42l-64 -299h-47zM361 632h-139l-62 -295h139q113 0 170.5 47.5t57.5 123.5q0 60 -38.5 92t-127.5 32z" />
    <glyph glyph-name="S" unicode="S" horiz-adv-x="568" 
d="M246 -16q-100 0 -160.5 44t-60.5 123v12t1 13h50q-1 -4 -1 -8.5v-8.5q0 -49 24.5 -78.5t64.5 -42.5t87 -13q96 0 150.5 46t54.5 117q0 50 -30 81t-91 48l-78 21q-61 16 -99.5 52.5t-38.5 98.5q0 51 28 96t81 73t129 28q98 0 152.5 -47.5t54.5 -122.5v-9.5t-1 -10.5h-51
q1 9 1 14v10q0 32 -16 60.5t-51.5 46.5t-91.5 18q-89 0 -137 -44t-48 -108q0 -49 27 -74t75 -38l87 -24q71 -19 109.5 -60t38.5 -106q0 -59 -31.5 -105.5t-90 -74t-138.5 -27.5z" />
    <glyph glyph-name="T" unicode="T" horiz-adv-x="556" 
d="M198 0l134 630h-224l9 40h502l-9 -40h-231l-134 -630h-47z" />
    <glyph glyph-name="U" unicode="U" horiz-adv-x="642" 
d="M271 -16q-101 0 -149.5 48t-48.5 139q0 45 12 99l85 400h47l-87 -408q-5 -24 -8 -46t-3 -42q0 -148 157 -148q192 0 242 236l87 408h47l-87 -408q-29 -134 -100 -206t-194 -72z" />
    <glyph glyph-name="V" unicode="V" horiz-adv-x="587" 
d="M199 0l-79 670h48l68 -623l363 623h48l-392 -670h-56z" />
    <glyph glyph-name="W" unicode="W" horiz-adv-x="881" 
d="M154 0l-31 670h48l22 -621l316 621h45l27 -617l309 617h48l-341 -670h-56l-27 593l-303 -593h-57z" />
    <glyph glyph-name="X" unicode="X" horiz-adv-x="583" 
d="M-25 0l312 346l-141 324h51l123 -295l264 295h54l-298 -329l149 -341h-51l-131 310l-277 -310h-55z" />
    <glyph glyph-name="Y" unicode="Y" horiz-adv-x="555" 
d="M192 0l58 271l-134 399h49l115 -362l289 362h50l-321 -399l-58 -271h-48z" />
    <glyph glyph-name="Z" unicode="Z" horiz-adv-x="557" 
d="M153 631l9 39h441l-7 -33l-535 -598h405l-9 -39h-461l7 33l536 598h-386z" />
    <glyph glyph-name="a" unicode="a" horiz-adv-x="495" 
d="M155 -13q-66 0 -101.5 34t-35.5 89q0 91 93.5 139t276.5 49l3 14q6 27 6 50q0 52 -29.5 81.5t-87.5 29.5q-59 0 -99.5 -29.5t-60.5 -85.5h-45q23 70 77 110.5t130 40.5q74 0 115.5 -38.5t41.5 -108.5q0 -15 -1.5 -30.5t-5.5 -32.5l-64 -299h-40l17 90q-32 -46 -81 -74.5
t-109 -28.5zM64 113q0 -41 26 -65t72 -24q48 0 91 22t73 60t40 85l15 73q-88 -1 -160 -15t-114.5 -46.5t-42.5 -89.5z" />
    <glyph glyph-name="b" unicode="b" horiz-adv-x="548" 
d="M243 -13q-66 0 -104 36.5t-47 88.5l-27 -112h-40l149 700h44l-64 -301q33 52 82 81t106 29q75 0 118 -51t43 -143q0 -62 -19.5 -120.5t-54.5 -105.5t-82.5 -74.5t-103.5 -27.5zM242 26q50 0 89.5 25.5t67 67.5t42.5 92.5t15 100.5q0 76 -33.5 118t-90.5 42
q-47 0 -90.5 -27.5t-75.5 -75t-44 -107.5l-2 -10q-3 -15 -5.5 -33t-2.5 -38q0 -42 13.5 -77.5t42 -56.5t74.5 -21z" />
    <glyph glyph-name="c" unicode="c" horiz-adv-x="524" 
d="M235 -13q-88 0 -139 53.5t-51 151.5q0 59 19 115.5t54.5 102t85.5 72.5t112 27q83 0 127.5 -48.5t49.5 -121.5h-45q-4 58 -38 95.5t-98 37.5q-52 0 -93 -24.5t-69.5 -65.5t-43.5 -90.5t-15 -98.5q0 -82 39.5 -125.5t108.5 -43.5q62 0 109.5 37t70.5 107h44
q-27 -91 -88.5 -136t-139.5 -45z" />
    <glyph glyph-name="d" unicode="d" horiz-adv-x="551" 
d="M206 -13q-75 0 -118 50.5t-43 142.5q0 62 19.5 121t54.5 106t82 74.5t103 27.5q67 0 104.5 -35.5t47.5 -87.5l67 314h44l-149 -700h-40l18 100q-33 -53 -82.5 -83t-107.5 -30zM215 24q47 0 91 27.5t76 75t44 107.5l2 10q3 15 5.5 33t2.5 38q0 42 -13.5 77.5t-42 56.5
t-74.5 21q-50 0 -89.5 -25.5t-67 -67.5t-42.5 -92.5t-15 -100.5q0 -76 33.5 -118t89.5 -42z" />
    <glyph glyph-name="e" unicode="e" horiz-adv-x="531" 
d="M239 -13q-92 0 -143 54.5t-51 149.5q0 58 18.5 114.5t54 102.5t85.5 73.5t113 27.5q60 0 99 -25.5t57.5 -69.5t18.5 -98q0 -19 -2 -38.5t-6 -39.5h-389q-4 -24 -4 -48q0 -80 39 -123t112 -43q65 0 109 34t66 95h44q-28 -82 -85 -124t-136 -42zM311 472q-54 0 -96.5 -27.5
t-71.5 -72.5t-42 -98h345q3 21 3 41q0 67 -34 112t-104 45z" />
    <glyph glyph-name="f" unicode="f" horiz-adv-x="310" 
d="M45 0l97 459h-77l8 37h77l8 36q20 91 61 136t109 45q47 0 77 -18l-13 -32q-16 7 -29.5 10t-30.5 3q-51 0 -82.5 -34.5t-48.5 -114.5l-7 -31h150l-8 -37h-149l-98 -459h-44z" />
    <glyph glyph-name="g" unicode="g" horiz-adv-x="549" 
d="M186 -185q77 0 122.5 47t64.5 138l22 103q-31 -46 -81.5 -74.5t-108.5 -28.5q-75 0 -118 50t-43 139q0 60 19.5 117t54.5 103t82.5 73t103.5 27q66 0 104 -36.5t47 -88.5l27 112h40l-104 -490q-24 -112 -79 -170.5t-154 -58.5q-89 0 -131 45t-46 125h46q0 -33 11 -63
t40 -49.5t81 -19.5zM216 37q48 0 91.5 26t75 70.5t42.5 100.5l2 10q3 15 5.5 33t2.5 38q0 42 -13.5 77.5t-42.5 56.5t-74 21q-49 0 -89 -24.5t-67.5 -65.5t-42.5 -90t-15 -97q0 -73 33 -114.5t92 -41.5z" />
    <glyph glyph-name="h" unicode="h" horiz-adv-x="549" 
d="M25 0l149 700h44l-65 -306q34 58 83 86.5t107 28.5q73 0 110 -41.5t37 -112.5q0 -14 -1.5 -31.5t-5.5 -36.5l-61 -287h-44l60 282q4 19 6 35.5t2 33.5q0 56 -27 88.5t-83 32.5q-76 0 -133 -59t-80 -163l-54 -250h-44z" />
    <glyph glyph-name="i" unicode="i" horiz-adv-x="202" 
d="M177 596q-13 0 -23 8t-10 23q0 17 12 29t29 12q13 0 23 -8t10 -23q0 -17 -12 -29t-29 -12zM26 0l105 496h44l-105 -496h-44z" />
    <glyph glyph-name="j" unicode="j" horiz-adv-x="202" 
d="M178 596q-13 0 -23 8t-10 23q0 17 12 29t29 12q13 0 23 -8t10 -23q0 -17 -12 -29t-29 -12zM-120 -220q-21 0 -36 3t-25 8l10 35q26 -8 53 -8q49 0 83.5 31t50.5 105l116 542h44l-116 -542q-19 -88 -64.5 -131t-115.5 -43z" />
    <glyph glyph-name="k" unicode="k" horiz-adv-x="468" 
d="M25 0l149 700h44l-89 -417l286 213h63l-309 -227q62 -15 107 -54t74.5 -95t42.5 -120h-46q-19 95 -76 162.5t-150 81.5l-52 -244h-44z" />
    <glyph glyph-name="l" unicode="l" horiz-adv-x="202" 
d="M26 0l149 700h44l-149 -700h-44z" />
    <glyph glyph-name="m" unicode="m" horiz-adv-x="851" 
d="M26 0l105 496h40l-20 -105q32 59 79.5 88.5t102.5 29.5q63 0 96 -36.5t37 -98.5q32 68 83 101.5t110 33.5q67 0 100 -40t33 -110q0 -15 -2 -34t-6 -38l-61 -287h-44l61 282q9 39 9 72q0 55 -25 86.5t-75 31.5q-66 0 -119.5 -56.5t-77.5 -156.5l-55 -259h-44l60 282
q9 39 9 73q0 54 -25 85.5t-74 31.5q-47 0 -87 -28t-69.5 -78t-43.5 -116l-53 -250h-44z" />
    <glyph glyph-name="n" unicode="n" horiz-adv-x="550" 
d="M26 0l105 496h40l-20 -106q33 60 81.5 89.5t107.5 29.5q75 0 113 -43t38 -109q0 -17 -2 -35.5t-5 -34.5l-61 -287h-44l60 282q3 16 5 34t2 34q0 56 -28 89t-86 33q-74 0 -130 -57.5t-79 -165.5l-53 -249h-44z" />
    <glyph glyph-name="o" unicode="o" horiz-adv-x="548" 
d="M236 -13q-87 0 -139 55.5t-52 153.5q0 56 18.5 111.5t53 101t84 73t111.5 27.5q87 0 139 -55.5t52 -153.5q0 -56 -18.5 -111.5t-53 -101t-84 -73t-111.5 -27.5zM240 24q51 0 91 23.5t68 63.5t43 89t15 99q0 85 -40.5 129t-108.5 44q-51 0 -91 -23.5t-68 -63.5t-43 -89
t-15 -99q0 -85 40.5 -129t108.5 -44z" />
    <glyph glyph-name="p" unicode="p" horiz-adv-x="549" 
d="M-19 -210l150 706h40l-18 -100q33 53 82.5 83t107.5 30q75 0 118 -50.5t43 -142.5q0 -62 -19.5 -121t-54.5 -106t-82 -74.5t-103 -27.5q-67 0 -104.5 35.5t-47.5 87.5l-68 -320h-44zM243 26q49 0 89 25.5t67.5 67.5t42.5 92.5t15 100.5q0 76 -33.5 118t-89.5 42
q-48 0 -91.5 -27.5t-75.5 -75t-44 -107.5l-2 -10q-3 -15 -5.5 -33t-2.5 -38q0 -42 13.5 -77.5t42.5 -56.5t74 -21z" />
    <glyph glyph-name="q" unicode="q" horiz-adv-x="550" 
d="M206 -13q-75 0 -118 51t-43 143q0 62 19.5 120.5t54.5 105.5t82.5 74.5t103.5 27.5q66 0 104 -36.5t47 -88.5l27 112h40l-150 -706h-44l65 307q-33 -52 -82 -81t-106 -29zM216 24q47 0 90.5 27.5t75.5 75t44 107.5l2 10q3 15 5.5 33t2.5 38q0 42 -13.5 77.5t-42 56.5
t-74.5 21q-50 0 -89.5 -25.5t-67 -67.5t-42.5 -92.5t-15 -100.5q0 -76 33.5 -118t90.5 -42z" />
    <glyph glyph-name="r" unicode="r" horiz-adv-x="334" 
d="M25 0l106 496h40l-22 -111q29 51 73 85t100 34q14 0 30 -4l-9 -42q-5 2 -13 2.5t-15 0.5q-43 0 -82.5 -27.5t-68.5 -76.5t-43 -115l-52 -242h-44z" />
    <glyph glyph-name="s" unicode="s" horiz-adv-x="459" 
d="M214 -13q-66 0 -109.5 23t-65 60.5t-21.5 79.5h46q0 -53 38.5 -90.5t115.5 -37.5q67 0 98 29t31 76q0 38 -21.5 61t-70.5 41l-63 23q-57 21 -82 48t-25 67q0 35 19 67.5t57.5 53.5t96.5 21q49 0 82 -14.5t53 -37.5t29.5 -48.5t11.5 -47.5h-46q-2 25 -14 51t-40 44t-77 18
q-60 0 -94 -28.5t-34 -73.5q0 -31 18.5 -50t61.5 -35l69 -25q48 -17 81 -46.5t33 -84.5q0 -39 -19 -72t-58.5 -52.5t-100.5 -19.5z" />
    <glyph glyph-name="t" unicode="t" horiz-adv-x="332" 
d="M184 -13q-58 0 -92 30.5t-34 87.5q0 12 1.5 22t4.5 26l65 306h-70l8 37h69l32 150h44l-32 -150h156l-8 -37h-155l-65 -306q-6 -27 -6 -49q0 -45 24 -62.5t63 -17.5q15 0 28 2t29 7l7 -34q-23 -7 -38 -9.5t-31 -2.5z" />
    <glyph glyph-name="u" unicode="u" horiz-adv-x="535" 
d="M197 -13q-71 0 -107 41.5t-36 109.5q0 16 2 34t6 37l61 287h44l-61 -282q-4 -20 -6 -36.5t-2 -32.5q0 -56 26 -88.5t79 -32.5q76 0 131.5 61t76.5 161l53 250h44l-105 -496h-40l20 104q-34 -59 -82 -88t-104 -29z" />
    <glyph glyph-name="v" unicode="v" horiz-adv-x="465" 
d="M155 0l-81 496h45l70 -447l257 447h47l-292 -496h-46z" />
    <glyph glyph-name="w" unicode="w" horiz-adv-x="683" 
d="M103 0l-27 496h45l20 -441l235 441h45l21 -443l230 443h45l-263 -496h-48l-24 430l-232 -430h-47z" />
    <glyph glyph-name="x" unicode="x" horiz-adv-x="443" 
d="M-41 0l243 259l-106 237h46l89 -206l191 206h53l-227 -240l112 -256h-47l-95 224l-206 -224h-53z" />
    <glyph glyph-name="y" unicode="y" horiz-adv-x="447" 
d="M-37 -223q-42 0 -73 22l15 32q12 -7 29 -11.5t32 -4.5q34 0 63 25.5t66 87.5l52 86l-68 482h46l56 -427l253 427h47l-348 -579q-35 -59 -63 -89t-53.5 -40.5t-53.5 -10.5z" />
    <glyph glyph-name="z" unicode="z" horiz-adv-x="431" 
d="M-20 0l8 36l403 424h-302l8 36h354l-8 -36l-403 -424h321l-8 -36h-373z" />
    <glyph glyph-name="a.ss01" horiz-adv-x="551" 
d="M204 -13q-75 0 -118 50.5t-43 142.5q0 62 19.5 121t54.5 106t82 74.5t103 27.5q70 0 108.5 -38.5t45.5 -93.5l30 119h40l-110 -496h-40l19 101q-33 -53 -83 -83.5t-108 -30.5zM213 24q47 0 91 27.5t76 75t44 107.5l2 10q3 15 5.5 33t2.5 38q0 42 -13.5 77.5t-42 56.5
t-74.5 21q-50 0 -89.5 -25.5t-67 -67.5t-42.5 -92.5t-15 -100.5q0 -76 33.5 -118t89.5 -42z" />
    <glyph glyph-name="dotlessi" unicode="&#x131;" horiz-adv-x="203" 
d="M26 0l105 496h45l-105 -496h-45z" />
    <glyph glyph-name="glyph232" horiz-adv-x="535" 
d="M204 37q50 0 91.5 27t71 74.5t42.5 107.5l56 250h44l-108 -486q-25 -114 -80.5 -173.5t-149.5 -59.5q-83 0 -124.5 45t-45.5 125h46q0 -33 11 -63t38 -49.5t76 -19.5q70 0 118 46.5t67 140.5l21 101q-33 -50 -79 -76.5t-102 -26.5q-72 0 -107.5 41t-35.5 105q0 9 1.5 26
t6.5 40l62 284h44l-62 -279q-4 -19 -6 -36.5t-2 -29.5q0 -50 25.5 -82t80.5 -32z" />
    <glyph glyph-name="glyph233" 
d="M-113 313q-39 0 -39 36q0 21 13.5 34.5t33.5 13.5t29.5 -11t9.5 -27q0 -19 -14 -32.5t-33 -13.5z" />
    <glyph glyph-name="IJ" unicode="&#x132;" horiz-adv-x="616" 
d="M260 -16q-96 0 -144 49t-48 135q0 9 0.5 18t1.5 18h47q-1 -8 -1.5 -16t-0.5 -16q0 -71 35.5 -108.5t109.5 -37.5q94 0 151 61.5t82 178.5l85 404h47l-88 -418q-28 -132 -97 -200t-180 -68zM140 308h-47l77 362h47z" />
    <glyph glyph-name="Thorn" unicode="&#xde;" horiz-adv-x="554" 
d="M88 0h-47l143 670h47l-29 -138h146q94 0 141.5 -45.5t47.5 -120.5q0 -64 -32 -115.5t-92.5 -81.5t-147.5 -30h-147zM269 178q70 0 118.5 24t74 66t25.5 95q0 64 -39.5 97t-113.5 33h-141l-67 -315h143z" />
    <glyph glyph-name="AE" unicode="&#xc6;" horiz-adv-x="878" 
d="M-22 0l526 670h405l-9 -39h-332l-59 -276h305l-8 -37h-305l-60 -279h338l-8 -39h-385l39 181h-256l-141 -181h-50zM200 220h233l88 412z" />
    <glyph glyph-name="OE" unicode="&#x152;" horiz-adv-x="921" 
d="M814 0h-478q-140 0 -206.5 72.5t-66.5 194.5q0 84 29 157t83.5 128t131.5 86.5t173 31.5h472l-9 -39h-332l-59 -276h305l-8 -37h-305l-60 -279h338zM348 39h89l127 592h-87q-113 0 -194.5 -48.5t-125 -130.5t-43.5 -185q0 -109 55 -168.5t179 -59.5z" />
    <glyph glyph-name="uni1E9E" unicode="&#x1e9e;" horiz-adv-x="621" 
d="M25 0l91 426q25 117 96 188.5t182 71.5q76 0 129 -34t78 -92l-214 -171q68 -3 108.5 -30.5t58.5 -69.5t18 -89q0 -61 -28 -110t-83.5 -77.5t-136.5 -28.5q-28 0 -63 4t-59 15l14 42q26 -11 57.5 -15t55.5 -4q55 0 98.5 19.5t69.5 58.5t26 97q0 67 -41 110t-132 43h-22
l8 40l211 172q-19 37 -62 57.5t-93 20.5q-83 0 -144.5 -55t-82.5 -153l-93 -436h-47z" />
    <glyph glyph-name="Eng" unicode="&#x14a;" horiz-adv-x="674" 
d="M318 -180q67 0 104.5 40.5t57.5 130.5l5 22l-269 589l-128 -602h-47l142 670h48l269 -587l124 587h47l-140 -659q-25 -121 -74.5 -177.5t-142.5 -56.5q-26 0 -52.5 5t-43.5 15l17 40q16 -7 38.5 -12t44.5 -5z" />
    <glyph glyph-name="Eth" unicode="&#xd0;" horiz-adv-x="688" 
d="M56 0l68 317h-80l9 38h79l67 315h190q140 0 206.5 -72t66.5 -194q0 -84 -29 -157.5t-83.5 -128.5t-131.5 -86.5t-173 -31.5h-189zM384 317h-213l-59 -277h136q113 0 194.5 48t125 130t43.5 184q0 109 -54.5 168.5t-179.5 59.5h-139l-59 -275h214z" />
    <glyph glyph-name="Dcroat" unicode="&#x110;" horiz-adv-x="688" 
d="M56 0l68 317h-80l9 38h79l67 315h190q140 0 206.5 -72t66.5 -194q0 -84 -29 -157.5t-83.5 -128.5t-131.5 -86.5t-173 -31.5h-189zM384 317h-213l-59 -277h136q113 0 194.5 48t125 130t43.5 184q0 109 -54.5 168.5t-179.5 59.5h-139l-59 -275h214z" />
    <glyph glyph-name="Hbar" unicode="&#x126;" horiz-adv-x="703" 
d="M61 0l105 493h-81l9 38h80l30 139h47l-30 -139h381l30 139h47l-30 -139h85l-9 -38h-84l-105 -493h-47l67 316h-381l-67 -316h-47zM184 355h381l29 138h-381z" />
    <glyph glyph-name="Tbar" unicode="&#x166;" horiz-adv-x="556" 
d="M198 0l67 315h-159l9 38h158l59 277h-224l9 40h502l-9 -40h-231l-59 -277h161l-9 -38h-160l-67 -315h-47z" />
    <glyph glyph-name="Lslash" unicode="&#x141;" horiz-adv-x="498" 
d="M41 0l59 278l-100 -51l9 45l101 51l74 347h47l-68 -321l209 106l-10 -45l-209 -106l-57 -264h326l-9 -40h-372z" />
    <glyph glyph-name="Oslash" unicode="&#xd8;" horiz-adv-x="703" 
d="M43 -16l76 88q-56 74 -56 196q0 82 25.5 157t73 134t113.5 93t148 34q54 0 97 -16t74 -46l76 88l31 -26l-80 -92q56 -76 56 -197q0 -79 -25 -153t-72.5 -132.5t-114 -93t-150.5 -34.5q-53 0 -95.5 15t-73.5 44l-73 -85zM114 264q0 -92 38 -153l412 479q-53 55 -142 55
q-75 0 -132.5 -33t-96.5 -88.5t-59 -123t-20 -136.5zM318 25q72 0 129 31.5t97 85.5t61 122t21 141q0 92 -36 152l-413 -478q53 -54 141 -54z" />
    <glyph glyph-name="glyph251" horiz-adv-x="38" 
d="M34 298q-39 0 -39 36q0 21 13.5 34.5t33.5 13.5t29.5 -11t9.5 -27q0 -19 -14 -32.5t-33 -13.5z" />
    <glyph glyph-name="ij" unicode="&#x133;" horiz-adv-x="535" 
d="M204 37q50 0 91.5 27t71 74.5t42.5 107.5l56 250h44l-108 -486q-25 -114 -80.5 -173.5t-149.5 -59.5q-83 0 -124.5 45t-45.5 125h46q0 -33 11 -63t38 -49.5t76 -19.5q70 0 118 46.5t67 140.5l21 101q-33 -50 -79 -76.5t-102 -26.5q-72 0 -107.5 41t-35.5 105q0 9 1.5 26
t6.5 40l62 284h44l-62 -279q-4 -19 -6 -36.5t-2 -29.5q0 -50 25.5 -82t80.5 -32zM170 596q-13 0 -23 8t-10 23q0 17 12 29t29 12q13 0 23 -8t10 -23q0 -17 -12 -29t-29 -12zM512 596q-13 0 -23 8t-10 23q0 17 12 29t29 12q13 0 23 -8t10 -23q0 -17 -12 -29t-29 -12z" />
    <glyph glyph-name="thorn" unicode="&#xfe;" horiz-adv-x="547" 
d="M-19 -210l194 910h44l-64 -301q33 52 82 81t106 29q75 0 118 -50.5t43 -142.5q0 -62 -19.5 -121t-54.5 -106t-82 -74.5t-103 -27.5q-67 0 -104.5 35.5t-47.5 87.5l-68 -320h-44zM243 26q49 0 89 25.5t67.5 67.5t42.5 92.5t15 100.5q0 76 -33.5 118t-89.5 42
q-48 0 -91.5 -27.5t-75.5 -75t-44 -107.5l-2 -10q-3 -15 -5.5 -33t-2.5 -38q0 -42 13.5 -77.5t42.5 -56.5t74 -21z" />
    <glyph glyph-name="ae" unicode="&#xe6;" horiz-adv-x="855" 
d="M156 -13q-67 0 -102.5 34.5t-35.5 90.5q0 89 93 137t277 49l3 14q6 27 6 50q0 52 -29.5 81.5t-88.5 29.5t-99 -29.5t-60 -85.5h-45q23 70 77 110.5t130 40.5q68 0 108 -32t45 -91q34 54 84.5 88.5t120.5 34.5q60 0 99 -25.5t57.5 -69.5t18.5 -98q0 -19 -2 -38.5t-6 -39.5
h-389q-4 -26 -4 -47q0 -80 39.5 -123.5t110.5 -43.5q65 0 109.5 35t66.5 94h44q-28 -83 -85 -124.5t-135 -41.5q-76 0 -123.5 38t-59.5 105q-30 -62 -91 -102.5t-134 -40.5zM635 472q-54 0 -96.5 -27.5t-72 -72.5t-42.5 -98h346q3 21 3 41q0 67 -34 112t-104 45zM163 24
q46 0 88.5 22t73.5 59.5t41 85.5l15 73q-89 -1 -160.5 -15t-114 -46.5t-42.5 -88.5q0 -42 26 -66t73 -24z" />
    <glyph glyph-name="oe" unicode="&#x153;" horiz-adv-x="933" 
d="M234 -13q-87 0 -139 55.5t-52 153.5q0 56 18.5 111.5t53 101t84 73t111.5 27.5q73 0 121.5 -39.5t60.5 -109.5q32 64 89.5 106.5t136.5 42.5q60 0 99 -25.5t57.5 -69.5t18.5 -98q0 -19 -2 -38.5t-6 -39.5h-390q-2 -11 -2.5 -23t-0.5 -24q0 -80 39.5 -123.5t110.5 -43.5
q65 0 109.5 35t66.5 94h44q-28 -83 -85 -124.5t-136 -41.5q-77 0 -125 38.5t-60 109.5q-30 -63 -87 -105.5t-135 -42.5zM237 24q51 0 91.5 23.5t68.5 63.5t43 89t15 99q0 85 -40.5 129t-107.5 44q-51 0 -91.5 -23.5t-68.5 -63.5t-43 -89t-15 -99q0 -85 40.5 -129t107.5 -44z
M713 472q-54 0 -96.5 -27.5t-71.5 -73t-43 -97.5h346q3 21 3 41q0 67 -34 112t-104 45z" />
    <glyph glyph-name="germandbls" unicode="&#xdf;" horiz-adv-x="571" 
d="M280 24q62 0 105.5 25.5t66.5 68t23 95.5q0 67 -41.5 105.5t-132.5 38.5h-22l8 37h21q54 0 97.5 19.5t69.5 55.5t26 88q0 56 -33.5 87.5t-94.5 31.5q-74 0 -128 -52t-77 -162l-99 -462h-44l99 465q25 117 88.5 182.5t164.5 65.5q86 0 128 -44t42 -109q0 -67 -39 -115.5
t-104 -67.5q59 -14 87.5 -58.5t28.5 -102.5q0 -61 -26.5 -113t-79 -84t-130.5 -32q-26 0 -56 4.5t-55 14.5l12 36q25 -10 49 -14t46 -4z" />
    <glyph glyph-name="eng" unicode="&#x14b;" horiz-adv-x="550" 
d="M235 -182q49 0 83.5 31t50.5 105l70 328q4 19 6 35.5t2 33.5q0 56 -27.5 88.5t-83.5 32.5q-76 0 -133 -58.5t-80 -164.5l-53 -249h-44l105 496h40l-20 -106q33 60 83.5 89.5t109.5 29.5q74 0 111 -42t37 -110q0 -17 -2 -34t-6 -36l-71 -333q-19 -88 -64.5 -131
t-115.5 -43q-21 0 -36 3t-25 8l10 35q26 -8 53 -8z" />
    <glyph glyph-name="eth" unicode="&#xf0;" horiz-adv-x="549" 
d="M232 -13q-54 0 -97 21.5t-67.5 66.5t-24.5 114q0 57 18 111.5t51 98.5t79 69.5t103 25.5q65 0 110.5 -34.5t59.5 -92.5q1 12 1 25q0 63 -22 119t-66 98l-116 -75l-17 29l106 68q-46 34 -107 49l15 37q37 -10 70 -25.5t60 -36.5l101 65l17 -28l-92 -59q43 -43 67 -106.5
t24 -150.5q0 -66 -15 -134.5t-47.5 -126t-84.5 -93t-126 -35.5zM233 25q65 0 112 36.5t73 96.5t26 128q0 85 -39 127t-104 42t-112 -36.5t-73 -96.5t-26 -128q0 -85 39 -127t104 -42z" />
    <glyph glyph-name="dcroat" unicode="&#x111;" horiz-adv-x="564" 
d="M204 -13q-75 0 -118 49.5t-43 135.5q0 58 19.5 114t54.5 101t83 72t105 27q62 0 99.5 -31t48.5 -72l41 192h-180l7 36h181l19 89h44l-19 -89h73l-7 -36h-74l-122 -575h-40l18 100q-33 -53 -82.5 -83t-107.5 -30zM213 24q47 0 91 27.5t76 75t44 107.5l2 10q3 15 5.5 33.5
t2.5 34.5q0 35 -13.5 66t-42 50t-73.5 19q-50 0 -89.5 -24t-67.5 -63.5t-43 -87t-15 -94.5q0 -73 33.5 -113.5t89.5 -40.5z" />
    <glyph glyph-name="hbar" unicode="&#x127;" horiz-adv-x="563" 
d="M40 0l122 575h-71l7 36h72l19 89h44l-19 -89h180l-7 -36h-181l-43 -202q34 54 84.5 83.5t110.5 29.5q73 0 109.5 -40t36.5 -101q0 -12 -2 -31.5t-10 -53.5l-55 -260h-44l56 264q5 24 8 43.5t3 34.5q0 46 -27 76.5t-83 30.5q-50 0 -93.5 -25.5t-74 -70.5t-43.5 -103
l-55 -250h-44z" />
    <glyph glyph-name="tbar" unicode="&#x167;" horiz-adv-x="332" 
d="M184 -13q-58 0 -92 30.5t-34 87.5q0 12 1.5 22t4.5 26l20 97h-70l8 37h70l37 172h-70l8 37h69l32 150h44l-32 -150h156l-8 -37h-155l-37 -172h155l-8 -37h-155l-20 -97q-6 -27 -6 -49q0 -45 24 -62.5t63 -17.5q15 0 28 2t29 7l7 -34q-23 -7 -38 -9.5t-31 -2.5z" />
    <glyph glyph-name="lslash" unicode="&#x142;" horiz-adv-x="232" 
d="M40 0l74 349l-100 -52l9 41l100 52l66 310h44l-61 -289l98 52l-9 -41l-98 -51l-79 -371h-44z" />
    <glyph glyph-name="oslash" unicode="&#xf8;" horiz-adv-x="548" 
d="M34 -14l56 65q-45 56 -45 145q0 56 18.5 111.5t53 101t84 73t111.5 27.5q79 0 130 -47l2 3l59 69l28 -24l-57 -66l-8 -9q37 -54 37 -135q0 -56 -18.5 -111.5t-53 -101t-84 -73t-111.5 -27.5q-72 0 -121 39l-54 -63zM91 197q0 -68 28 -111l295 344q-39 42 -106 42
q-51 0 -91 -23.5t-68 -63.5t-43 -89t-15 -99zM240 24q51 0 91 23.5t68 63.5t43 89t15 99q0 59 -21 100l-294 -341q38 -34 98 -34z" />
    <glyph glyph-name="uniFB00" unicode="&#xfb00;" horiz-adv-x="612" 
d="M45 0l97 459h-77l8 37h77l8 36q20 91 61 136t109 45q47 0 77 -18l-13 -32q-16 7 -29.5 10t-30.5 3q-51 0 -82.5 -34.5t-48.5 -114.5l-7 -31h258l8 36q20 91 61 136t109 45q47 0 77 -18l-13 -32q-16 7 -29.5 10t-30.5 3q-51 0 -82.5 -34.5t-48.5 -114.5l-7 -31h150l-8 -37
h-149l-98 -459h-44l97 459h-257l-98 -459h-44z" />
    <glyph glyph-name="uniFB01" unicode="&#xfb01;" horiz-adv-x="523" 
d="M45 0l97 459h-77l8 37h77l8 36q20 91 61 136t109 45q47 0 77 -18l-13 -32q-16 7 -29.5 10t-30.5 3q-51 0 -82.5 -34.5t-48.5 -114.5l-7 -31h150l-8 -37h-149l-98 -459h-44zM498 596q-13 0 -23 8t-10 23q0 17 12 29t29 12q13 0 23 -8t10 -23q0 -17 -12 -29t-29 -12zM347 0
l105 496h44l-105 -496h-44z" />
    <glyph glyph-name="uniFB02" unicode="&#xfb02;" horiz-adv-x="519" 
d="M45 0l97 459h-77l8 37h77l8 36q20 91 61 136t109 45q47 0 77 -18l-13 -32q-16 7 -29.5 10t-30.5 3q-51 0 -82.5 -34.5t-48.5 -114.5l-7 -31h150l-8 -37h-149l-98 -459h-44zM342 0l149 700h44l-149 -700h-44z" />
    <glyph glyph-name="uniFB03" unicode="&#xfb03;" horiz-adv-x="825" 
d="M45 0l97 459h-77l8 37h77l8 36q20 91 61 136t109 45q47 0 77 -18l-13 -32q-16 7 -29.5 10t-30.5 3q-51 0 -82.5 -34.5t-48.5 -114.5l-7 -31h259l8 36q19 91 61 136t109 45q47 0 77 -18l-13 -32q-17 7 -30 10t-30 3q-51 0 -82.5 -34.5t-48.5 -114.5l-7 -31h150l-8 -37
h-149l-98 -459h-44l97 459h-258l-98 -459h-44zM800 596q-13 0 -23 8t-10 23q0 17 12 29t29 12q13 0 23 -8t10 -23q0 -17 -12 -29t-29 -12zM649 0l105 496h44l-105 -496h-44z" />
    <glyph glyph-name="uniFB04" unicode="&#xfb04;" horiz-adv-x="822" 
d="M45 0l97 459h-77l8 37h77l8 36q20 91 61 136t109 45q47 0 77 -18l-13 -32q-16 7 -29.5 10t-30.5 3q-51 0 -82.5 -34.5t-48.5 -114.5l-7 -31h258l8 36q20 91 61 136t109 45q47 0 77 -18l-13 -32q-16 7 -29.5 10t-30.5 3q-51 0 -82.5 -34.5t-48.5 -114.5l-7 -31h150l-8 -37
h-149l-98 -459h-44l97 459h-257l-98 -459h-44zM645 0l149 700h44l-149 -700h-44z" />
    <glyph glyph-name="uni0327" unicode="&#x327;" 
d="M-19 0h31l-25 -63q10 2 20 2q35 0 57 -23.5t22 -57.5q0 -42 -31 -67t-81 -25q-30 0 -66 10l6 29q16 -5 33 -7t28 -2q37 0 57 17t20 45q0 22 -13 37.5t-41 15.5q-13 0 -29 -8h-22z" />
    <glyph glyph-name="glyph270" 
d="M-9 0h33l-25 -63q11 3 23 3q37 0 58.5 -23.5t21.5 -58.5q0 -41 -30 -67t-86 -26q-13 0 -30 2t-37 7l6 31q17 -5 34 -6.5t28 -1.5q40 0 59.5 16.5t19.5 44.5q0 22 -13 37t-43 15q-14 0 -30 -8h-24z" />
    <glyph glyph-name="cedilla" unicode="&#xb8;" horiz-adv-x="500" 
d="M177 0h31l-25 -63q10 2 20 2q35 0 57 -23.5t22 -57.5q0 -42 -31 -67t-81 -25q-30 0 -66 10l6 29q16 -5 33 -7t28 -2q37 0 57 17t20 45q0 22 -13 37.5t-41 15.5q-13 0 -29 -8h-22z" />
    <glyph glyph-name="uni0326" unicode="&#x326;" 
d="M-91 -275l6 29q25 11 42 27t23 38q-19 0 -26.5 9.5t-7.5 21.5q0 16 11 29.5t31 13.5q33 0 33 -43q0 -46 -34 -80t-78 -45z" />
    <glyph glyph-name="glyph273" 
d="M-92 -279l7 33q24 11 39.5 25.5t24.5 35.5q-19 0 -27 9.5t-8 23.5q0 18 11.5 31.5t32.5 13.5q35 0 35 -43q0 -45 -33 -80.5t-82 -48.5z" />
    <glyph glyph-name="uni0312" unicode="&#x312;" 
d="M88 756l-6 -29q-25 -11 -42 -27t-23 -38q19 0 26.5 -9.5t7.5 -21.5q0 -17 -11.5 -30t-30.5 -13q-33 0 -33 43q0 46 34 80t78 45z" />
    <glyph glyph-name="glyph275" horiz-adv-x="500" 
d="M104 -275l6 29q25 11 42 27t23 38q-19 0 -26.5 9.5t-7.5 21.5q0 16 11 29.5t31 13.5q33 0 33 -43q0 -46 -34 -80t-78 -45z" />
    <glyph glyph-name="uni0328" unicode="&#x328;" 
d="M-25 -224q-39 0 -64 20t-25 57t21.5 68t54 54t64.5 34l40 -9q-30 -9 -63 -29.5t-56.5 -49.5t-23.5 -61q0 -25 15 -39t42 -14q25 0 47 10l-7 -32q-21 -9 -45 -9z" />
    <glyph glyph-name="glyph277" 
d="M-21 -227q-44 0 -69.5 19t-25.5 58q0 40 24 71t59 52.5t68 34.5l42 -8q-31 -12 -66 -33t-60 -48t-25 -61q0 -48 59 -48q29 0 54 10l-8 -38q-21 -9 -52 -9z" />
    <glyph glyph-name="glyph278" 
d="M-26 -224q-40 0 -64 19.5t-24 58.5q0 38 21 70t54 56t69 38l42 8q-29 -16 -64 -39.5t-60 -55t-25 -70.5q0 -29 15.5 -41.5t41.5 -12.5q25 0 47 10l-7 -32q-21 -9 -46 -9z" />
    <glyph glyph-name="glyph279" 
d="M-25 -227q-42 0 -66.5 19.5t-24.5 63.5t23 76t57 54t67 35l44 6q-21 -10 -46.5 -25.5t-49 -36.5t-38.5 -46.5t-15 -55.5q0 -29 14.5 -41t38.5 -12q13 0 25 3t23 7l-7 -38q-10 -4 -20.5 -6.5t-24.5 -2.5z" />
    <glyph glyph-name="ogonek" unicode="&#x2db;" horiz-adv-x="500" 
d="M168 -224q-39 0 -64 20t-25 57t21.5 68t54 54t64.5 34l40 -9q-30 -9 -63 -29.5t-56.5 -49.5t-23.5 -61q0 -25 15 -39t42 -14q25 0 47 10l-7 -32q-21 -9 -45 -9z" />
    <glyph glyph-name="Ccedilla" unicode="&#xc7;" horiz-adv-x="659" 
d="M312 -16q-121 0 -185 72t-64 202q0 84 26 161t73.5 137t112 95t142.5 35q62 0 117 -24.5t89 -76t34 -131.5h-51q0 52 -21.5 95.5t-64 69.5t-105.5 26q-70 0 -125.5 -33t-94.5 -88t-60 -124t-21 -141q0 -114 52.5 -174t151.5 -60q88 0 148 47t94 138h52
q-40 -112 -117.5 -169t-182.5 -57zM294 0h33l-25 -63q11 3 23 3q37 0 58.5 -23.5t21.5 -58.5q0 -41 -30 -67t-86 -26q-13 0 -30 2t-37 7l6 31q17 -5 34 -6.5t28 -1.5q40 0 59.5 16.5t19.5 44.5q0 22 -13 37t-43 15q-14 0 -30 -8h-24z" />
    <glyph glyph-name="Scedilla" unicode="&#x15e;" horiz-adv-x="568" 
d="M246 -16q-100 0 -160.5 44t-60.5 123v12t1 13h50q-1 -4 -1 -8.5v-8.5q0 -49 24.5 -78.5t64.5 -42.5t87 -13q96 0 150.5 46t54.5 117q0 50 -30 81t-91 48l-78 21q-61 16 -99.5 52.5t-38.5 98.5q0 51 28 96t81 73t129 28q98 0 152.5 -47.5t54.5 -122.5v-9.5t-1 -10.5h-51
q1 9 1 14v10q0 32 -16 60.5t-51.5 46.5t-91.5 18q-89 0 -137 -44t-48 -108q0 -49 27 -74t75 -38l87 -24q71 -19 109.5 -60t38.5 -106q0 -59 -31.5 -105.5t-90 -74t-138.5 -27.5zM223 0h33l-25 -63q11 3 23 3q37 0 58.5 -23.5t21.5 -58.5q0 -41 -30 -67t-86 -26q-13 0 -30 2
t-37 7l6 31q17 -5 34 -6.5t28 -1.5q40 0 59.5 16.5t19.5 44.5q0 22 -13 37t-43 15q-14 0 -30 -8h-24z" />
    <glyph glyph-name="Tcommaaccent" unicode="&#x162;" horiz-adv-x="556" 
d="M198 0l134 630h-224l9 40h502l-9 -40h-231l-134 -630h-47zM202 0h33l-25 -63q11 3 23 3q37 0 58.5 -23.5t21.5 -58.5q0 -41 -30 -67t-86 -26q-13 0 -30 2t-37 7l6 31q17 -5 34 -6.5t28 -1.5q40 0 59.5 16.5t19.5 44.5q0 22 -13 37t-43 15q-14 0 -30 -8h-24z" />
    <glyph glyph-name="Gcommaaccent" unicode="&#x122;" horiz-adv-x="685" 
d="M324 -16q-128 0 -194.5 72.5t-66.5 204.5q0 85 26.5 161.5t74.5 136t114 93.5t145 34q64 0 119.5 -24.5t90 -76t34.5 -131.5h-51q0 52 -22 95.5t-65.5 69.5t-107.5 26q-71 0 -127.5 -32t-96.5 -86.5t-61.5 -123.5t-21.5 -142q0 -116 54.5 -176t159.5 -60q114 0 180 69
t87 192h-204l8 39h253l-5 -29q-16 -94 -55.5 -164t-105.5 -109t-162 -39zM220 -279l7 33q24 11 39.5 25.5t24.5 35.5q-19 0 -27 9.5t-8 23.5q0 18 11.5 31.5t32.5 13.5q35 0 35 -43q0 -45 -33 -80.5t-82 -48.5z" />
    <glyph glyph-name="Kcommaaccent" unicode="&#x136;" horiz-adv-x="572" 
d="M41 0l143 670h47l-67 -316l402 316h65l-426 -331q119 -37 193.5 -124t104.5 -215h-49q-28 123 -106.5 206.5t-192.5 108.5l-67 -315h-47zM161 -279l7 33q24 11 39.5 25.5t24.5 35.5q-19 0 -27 9.5t-8 23.5q0 18 11.5 31.5t32.5 13.5q35 0 35 -43q0 -45 -33 -80.5
t-82 -48.5z" />
    <glyph glyph-name="Lcommaaccent" unicode="&#x13b;" horiz-adv-x="498" 
d="M41 0l143 670h47l-135 -630h326l-9 -40h-372zM134 -279l7 33q24 11 39.5 25.5t24.5 35.5q-19 0 -27 9.5t-8 23.5q0 18 11.5 31.5t32.5 13.5q35 0 35 -43q0 -45 -33 -80.5t-82 -48.5z" />
    <glyph glyph-name="Ncommaaccent" unicode="&#x145;" horiz-adv-x="674" 
d="M41 0l142 670h48l266 -601l127 601h47l-142 -670h-48l-266 601l-127 -601h-47zM181 -279l7 33q24 11 39.5 25.5t24.5 35.5q-19 0 -27 9.5t-8 23.5q0 18 11.5 31.5t32.5 13.5q35 0 35 -43q0 -45 -33 -80.5t-82 -48.5z" />
    <glyph glyph-name="Scommaaccent" unicode="&#x218;" horiz-adv-x="568" 
d="M246 -16q-100 0 -160.5 44t-60.5 123v12t1 13h50q-1 -4 -1 -8.5v-8.5q0 -49 24.5 -78.5t64.5 -42.5t87 -13q96 0 150.5 46t54.5 117q0 50 -30 81t-91 48l-78 21q-61 16 -99.5 52.5t-38.5 98.5q0 51 28 96t81 73t129 28q98 0 152.5 -47.5t54.5 -122.5v-9.5t-1 -10.5h-51
q1 9 1 14v10q0 32 -16 60.5t-51.5 46.5t-91.5 18q-89 0 -137 -44t-48 -108q0 -49 27 -74t75 -38l87 -24q71 -19 109.5 -60t38.5 -106q0 -59 -31.5 -105.5t-90 -74t-138.5 -27.5zM140 -279l7 33q24 11 39.5 25.5t24.5 35.5q-19 0 -27 9.5t-8 23.5q0 18 11.5 31.5t32.5 13.5
q35 0 35 -43q0 -45 -33 -80.5t-82 -48.5z" />
    <glyph glyph-name="uni021A" unicode="&#x21a;" horiz-adv-x="556" 
d="M198 0l134 630h-224l9 40h502l-9 -40h-231l-134 -630h-47zM119 -279l7 33q24 11 39.5 25.5t24.5 35.5q-19 0 -27 9.5t-8 23.5q0 18 11.5 31.5t32.5 13.5q35 0 35 -43q0 -45 -33 -80.5t-82 -48.5z" />
    <glyph glyph-name="Aogonek" unicode="&#x104;" horiz-adv-x="593" 
d="M-22 0l382 670h52l99 -670h-45l-26 181h-311l-102 -181h-49zM151 220h284l-57 404zM413 -227q-44 0 -69.5 19t-25.5 58q0 40 24 71t59 52.5t68 34.5l42 -8q-31 -12 -66 -33t-60 -48t-25 -61q0 -48 59 -48q29 0 54 10l-8 -38q-21 -9 -52 -9z" />
    <glyph glyph-name="Eogonek" unicode="&#x118;" horiz-adv-x="533" 
d="M41 0l143 670h380l-9 -39h-332l-59 -276h305l-8 -37h-305l-60 -279h338l-8 -39h-385zM328 -227q-44 0 -69.5 19t-25.5 58q0 40 24 71t59 52.5t68 34.5l42 -8q-31 -12 -66 -33t-60 -48t-25 -61q0 -48 59 -48q29 0 54 10l-8 -38q-21 -9 -52 -9z" />
    <glyph glyph-name="Iogonek" unicode="&#x12e;" horiz-adv-x="234" 
d="M41 0l143 670h47l-143 -670h-47zM-10 -227q-44 0 -69.5 19t-25.5 58q0 40 24 71t59 52.5t68 34.5l42 -8q-31 -12 -66 -33t-60 -48t-25 -61q0 -48 59 -48q29 0 54 10l-8 -38q-21 -9 -52 -9z" />
    <glyph glyph-name="Uogonek" unicode="&#x172;" horiz-adv-x="642" 
d="M271 -16q-101 0 -149.5 48t-48.5 139q0 45 12 99l85 400h47l-87 -408q-5 -24 -8 -46t-3 -42q0 -148 157 -148q192 0 242 236l87 408h47l-87 -408q-29 -134 -100 -206t-194 -72zM325 -227q-42 0 -66.5 19.5t-24.5 63.5t23 76t57 54t67 35l44 6q-21 -10 -46.5 -25.5
t-49 -36.5t-38.5 -46.5t-15 -55.5q0 -29 14.5 -41t38.5 -12q13 0 25 3t23 7l-7 -38q-10 -4 -20.5 -6.5t-24.5 -2.5z" />
    <glyph glyph-name="ccedilla" unicode="&#xe7;" horiz-adv-x="524" 
d="M235 -13q-88 0 -139 53.5t-51 151.5q0 59 19 115.5t54.5 102t85.5 72.5t112 27q83 0 127.5 -48.5t49.5 -121.5h-45q-4 58 -38 95.5t-98 37.5q-52 0 -93 -24.5t-69.5 -65.5t-43.5 -90.5t-15 -98.5q0 -82 39.5 -125.5t108.5 -43.5q62 0 109.5 37t70.5 107h44
q-27 -91 -88.5 -136t-139.5 -45zM204 0h31l-25 -63q10 2 20 2q35 0 57 -23.5t22 -57.5q0 -42 -31 -67t-81 -25q-30 0 -66 10l6 29q16 -5 33 -7t28 -2q37 0 57 17t20 45q0 22 -13 37.5t-41 15.5q-13 0 -29 -8h-22z" />
    <glyph glyph-name="scedilla" unicode="&#x15f;" horiz-adv-x="459" 
d="M214 -13q-66 0 -109.5 23t-65 60.5t-21.5 79.5h46q0 -53 38.5 -90.5t115.5 -37.5q67 0 98 29t31 76q0 38 -21.5 61t-70.5 41l-63 23q-57 21 -82 48t-25 67q0 35 19 67.5t57.5 53.5t96.5 21q49 0 82 -14.5t53 -37.5t29.5 -48.5t11.5 -47.5h-46q-2 25 -14 51t-40 44t-77 18
q-60 0 -94 -28.5t-34 -73.5q0 -31 18.5 -50t61.5 -35l69 -25q48 -17 81 -46.5t33 -84.5q0 -39 -19 -72t-58.5 -52.5t-100.5 -19.5zM159 0h31l-25 -63q10 2 20 2q35 0 57 -23.5t22 -57.5q0 -42 -31 -67t-81 -25q-30 0 -66 10l6 29q16 -5 33 -7t28 -2q37 0 57 17t20 45
q0 22 -13 37.5t-41 15.5q-13 0 -29 -8h-22z" />
    <glyph glyph-name="tcommaaccent" unicode="&#x163;" horiz-adv-x="332" 
d="M184 -13q-58 0 -92 30.5t-34 87.5q0 12 1.5 22t4.5 26l65 306h-70l8 37h69l32 150h44l-32 -150h156l-8 -37h-155l-65 -306q-6 -27 -6 -49q0 -45 24 -62.5t63 -17.5q15 0 28 2t29 7l7 -34q-23 -7 -38 -9.5t-31 -2.5zM114 0h31l-25 -63q10 2 20 2q35 0 57 -23.5t22 -57.5
q0 -42 -31 -67t-81 -25q-30 0 -66 10l6 29q16 -5 33 -7t28 -2q37 0 57 17t20 45q0 22 -13 37.5t-41 15.5q-13 0 -29 -8h-22z" />
    <glyph glyph-name="gcommaaccent" unicode="&#x123;" horiz-adv-x="549" 
d="M186 -185q77 0 122.5 47t64.5 138l22 103q-31 -46 -81.5 -74.5t-108.5 -28.5q-75 0 -118 50t-43 139q0 60 19.5 117t54.5 103t82.5 73t103.5 27q66 0 104 -36.5t47 -88.5l27 112h40l-104 -490q-24 -112 -79 -170.5t-154 -58.5q-89 0 -131 45t-46 125h46q0 -33 11 -63
t40 -49.5t81 -19.5zM216 37q48 0 91.5 26t75 70.5t42.5 100.5l2 10q3 15 5.5 33t2.5 38q0 42 -13.5 77.5t-42.5 56.5t-74 21q-49 0 -89 -24.5t-67.5 -65.5t-42.5 -90t-15 -97q0 -73 33 -114.5t92 -41.5zM409 756l-6 -29q-25 -11 -42 -27t-23 -38q19 0 26.5 -9.5t7.5 -21.5
q0 -17 -11.5 -30t-30.5 -13q-33 0 -33 43q0 46 34 80t78 45z" />
    <glyph glyph-name="kcommaaccent" unicode="&#x137;" horiz-adv-x="468" 
d="M25 0l149 700h44l-89 -417l286 213h63l-309 -227q62 -15 107 -54t74.5 -95t42.5 -120h-46q-19 95 -76 162.5t-150 81.5l-52 -244h-44zM106 -275l6 29q25 11 42 27t23 38q-19 0 -26.5 9.5t-7.5 21.5q0 16 11 29.5t31 13.5q33 0 33 -43q0 -46 -34 -80t-78 -45z" />
    <glyph glyph-name="lcommaaccent" unicode="&#x13c;" horiz-adv-x="202" 
d="M26 0l149 700h44l-149 -700h-44zM-54 -275l6 29q25 11 42 27t23 38q-19 0 -26.5 9.5t-7.5 21.5q0 16 11 29.5t31 13.5q33 0 33 -43q0 -46 -34 -80t-78 -45z" />
    <glyph glyph-name="ncommaaccent" unicode="&#x146;" horiz-adv-x="550" 
d="M26 0l105 496h40l-20 -106q33 60 81.5 89.5t107.5 29.5q75 0 113 -43t38 -109q0 -17 -2 -35.5t-5 -34.5l-61 -287h-44l60 282q3 16 5 34t2 34q0 56 -28 89t-86 33q-74 0 -130 -57.5t-79 -165.5l-53 -249h-44zM126 -275l6 29q25 11 42 27t23 38q-19 0 -26.5 9.5t-7.5 21.5
q0 16 11 29.5t31 13.5q33 0 33 -43q0 -46 -34 -80t-78 -45z" />
    <glyph glyph-name="scommaaccent" unicode="&#x219;" horiz-adv-x="459" 
d="M214 -13q-66 0 -109.5 23t-65 60.5t-21.5 79.5h46q0 -53 38.5 -90.5t115.5 -37.5q67 0 98 29t31 76q0 38 -21.5 61t-70.5 41l-63 23q-57 21 -82 48t-25 67q0 35 19 67.5t57.5 53.5t96.5 21q49 0 82 -14.5t53 -37.5t29.5 -48.5t11.5 -47.5h-46q-2 25 -14 51t-40 44t-77 18
q-60 0 -94 -28.5t-34 -73.5q0 -31 18.5 -50t61.5 -35l69 -25q48 -17 81 -46.5t33 -84.5q0 -39 -19 -72t-58.5 -52.5t-100.5 -19.5zM87 -275l6 29q25 11 42 27t23 38q-19 0 -26.5 9.5t-7.5 21.5q0 16 11 29.5t31 13.5q33 0 33 -43q0 -46 -34 -80t-78 -45z" />
    <glyph glyph-name="uni021B" unicode="&#x21b;" horiz-adv-x="332" 
d="M184 -13q-58 0 -92 30.5t-34 87.5q0 12 1.5 22t4.5 26l65 306h-70l8 37h69l32 150h44l-32 -150h156l-8 -37h-155l-65 -306q-6 -27 -6 -49q0 -45 24 -62.5t63 -17.5q15 0 28 2t29 7l7 -34q-23 -7 -38 -9.5t-31 -2.5zM42 -275l6 29q25 11 42 27t23 38q-19 0 -26.5 9.5
t-7.5 21.5q0 16 11 29.5t31 13.5q33 0 33 -43q0 -46 -34 -80t-78 -45z" />
    <glyph glyph-name="aogonek" unicode="&#x105;" horiz-adv-x="495" 
d="M155 -13q-66 0 -101.5 34t-35.5 89q0 91 93.5 139t276.5 49l3 14q6 27 6 50q0 52 -29.5 81.5t-87.5 29.5q-59 0 -99.5 -29.5t-60.5 -85.5h-45q23 70 77 110.5t130 40.5q74 0 115.5 -38.5t41.5 -108.5q0 -15 -1.5 -30.5t-5.5 -32.5l-64 -299h-40l17 90q-32 -46 -81 -74.5
t-109 -28.5zM64 113q0 -41 26 -65t72 -24q48 0 91 22t73 60t40 85l15 73q-88 -1 -160 -15t-114.5 -46.5t-42.5 -89.5zM277 -224q-39 0 -64 20t-25 57t21.5 68t54 54t64.5 34l40 -9q-30 -9 -63 -29.5t-56.5 -49.5t-23.5 -61q0 -25 15 -39t42 -14q25 0 47 10l-7 -32
q-21 -9 -45 -9z" />
    <glyph glyph-name="eogonek" unicode="&#x119;" horiz-adv-x="531" 
d="M239 -13q-92 0 -143 54.5t-51 149.5q0 58 18.5 114.5t54 102.5t85.5 73.5t113 27.5q60 0 99 -25.5t57.5 -69.5t18.5 -98q0 -19 -2 -38.5t-6 -39.5h-389q-4 -24 -4 -48q0 -80 39 -123t112 -43q65 0 109 34t66 95h44q-28 -82 -85 -124t-136 -42zM311 472q-54 0 -96.5 -27.5
t-71.5 -72.5t-42 -98h345q3 21 3 41q0 67 -34 112t-104 45zM272 -224q-40 0 -64 19.5t-24 58.5q0 38 21 70t54 56t69 38l42 8q-29 -16 -64 -39.5t-60 -55t-25 -70.5q0 -29 15.5 -41.5t41.5 -12.5q25 0 47 10l-7 -32q-21 -9 -46 -9z" />
    <glyph glyph-name="iogonek" unicode="&#x12f;" horiz-adv-x="202" 
d="M177 596q-13 0 -23 8t-10 23q0 17 12 29t29 12q13 0 23 -8t10 -23q0 -17 -12 -29t-29 -12zM26 0l105 496h44l-105 -496h-44zM-21 -224q-39 0 -64 20t-25 57t21.5 68t54 54t64.5 34l40 -9q-30 -9 -63 -29.5t-56.5 -49.5t-23.5 -61q0 -25 15 -39t42 -14q25 0 47 10l-7 -32
q-21 -9 -45 -9z" />
    <glyph glyph-name="uogonek" unicode="&#x173;" horiz-adv-x="535" 
d="M197 -13q-71 0 -107 41.5t-36 109.5q0 16 2 34t6 37l61 287h44l-61 -282q-4 -20 -6 -36.5t-2 -32.5q0 -56 26 -88.5t79 -32.5q76 0 131.5 61t76.5 161l53 250h44l-105 -496h-40l20 104q-34 -59 -82 -88t-104 -29zM307 -224q-39 0 -64 20t-25 57t21.5 68t54 54t64.5 34
l40 -9q-30 -9 -63 -29.5t-56.5 -49.5t-23.5 -61q0 -25 15 -39t42 -14q25 0 47 10l-7 -32q-21 -9 -45 -9z" />
    <glyph glyph-name="aogonek.ss01" horiz-adv-x="551" 
d="M204 -13q-75 0 -118 50.5t-43 142.5q0 62 19.5 121t54.5 106t82 74.5t103 27.5q70 0 108.5 -38.5t45.5 -93.5l30 119h40l-110 -496h-40l19 101q-33 -53 -83 -83.5t-108 -30.5zM213 24q47 0 91 27.5t76 75t44 107.5l2 10q3 15 5.5 33t2.5 38q0 42 -13.5 77.5t-42 56.5
t-74.5 21q-50 0 -89.5 -25.5t-67 -67.5t-42.5 -92.5t-15 -100.5q0 -76 33.5 -118t89.5 -42zM325 -224q-39 0 -64 20t-25 57t21.5 68t54 54t64.5 34l40 -9q-30 -9 -63 -29.5t-56.5 -49.5t-23.5 -61q0 -25 15 -39t42 -14q25 0 47 10l-7 -32q-21 -9 -45 -9z" />
    <glyph glyph-name="acutecomb" unicode="&#x301;" 
d="M-60 600l170 129l25 -35l-178 -118z" />
    <glyph glyph-name="glyph309" 
d="M-76 765l205 105l19 -43l-210 -93z" />
    <glyph glyph-name="glyph310" 
d="M-68 792l189 103l19 -40l-194 -91z" />
    <glyph glyph-name="glyph311" 
d="M-44 597l144 134l28 -33l-153 -123z" />
    <glyph glyph-name="acute" unicode="&#xb4;" horiz-adv-x="500" 
d="M219 600l170 129l25 -35l-178 -118z" />
    <glyph glyph-name="uni030B" unicode="&#x30b;" 
d="M-128 595l154 141l28 -32l-163 -131zM27 597l165 126l25 -35l-173 -115z" />
    <glyph glyph-name="glyph314" 
d="M-132 752l183 134l26 -40l-190 -123zM24 753l193 119l23 -41l-199 -108z" />
    <glyph glyph-name="hungarumlaut" unicode="&#x2dd;" horiz-adv-x="500" 
d="M159 595l154 141l28 -32l-163 -131zM314 597l165 126l25 -35l-173 -115z" />
    <glyph glyph-name="Aacute" unicode="&#xc1;" horiz-adv-x="593" 
d="M-22 0l382 670h52l99 -670h-45l-26 181h-311l-102 -181h-49zM151 220h284l-57 404zM322 765l205 105l19 -43l-210 -93z" />
    <glyph glyph-name="Cacute" unicode="&#x106;" horiz-adv-x="659" 
d="M312 -16q-121 0 -185 72t-64 202q0 84 26 161t73.5 137t112 95t142.5 35q62 0 117 -24.5t89 -76t34 -131.5h-51q0 52 -21.5 95.5t-64 69.5t-105.5 26q-70 0 -125.5 -33t-94.5 -88t-60 -124t-21 -141q0 -114 52.5 -174t151.5 -60q88 0 148 47t94 138h52
q-40 -112 -117.5 -169t-182.5 -57zM354 765l205 105l19 -43l-210 -93z" />
    <glyph glyph-name="Eacute" unicode="&#xc9;" horiz-adv-x="533" 
d="M41 0l143 670h380l-9 -39h-332l-59 -276h305l-8 -37h-305l-60 -279h338l-8 -39h-385zM311 765l205 105l19 -43l-210 -93z" />
    <glyph glyph-name="Iacute" unicode="&#xcd;" horiz-adv-x="234" 
d="M41 0l143 670h47l-143 -670h-47zM142 765l205 105l19 -43l-210 -93z" />
    <glyph glyph-name="Iacute_J_acutecomb.locl" horiz-adv-x="616" 
d="M260 -16q-96 0 -144 49t-48 135q0 9 0.5 18t1.5 18h47q-1 -8 -1.5 -16t-0.5 -16q0 -71 35.5 -108.5t109.5 -37.5q94 0 151 61.5t82 178.5l85 404h47l-88 -418q-28 -132 -97 -200t-180 -68zM140 308h-47l77 362h47zM128 765l205 105l19 -43l-210 -93zM536 765l205 105
l19 -43l-210 -93z" />
    <glyph glyph-name="Lacute" unicode="&#x139;" horiz-adv-x="498" 
d="M41 0l143 670h47l-135 -630h326l-9 -40h-372zM142 765l205 105l19 -43l-210 -93z" />
    <glyph glyph-name="Nacute" unicode="&#x143;" horiz-adv-x="674" 
d="M41 0l142 670h48l266 -601l127 601h47l-142 -670h-48l-266 601l-127 -601h-47zM361 765l205 105l19 -43l-210 -93z" />
    <glyph glyph-name="Oacute" unicode="&#xd3;" horiz-adv-x="703" 
d="M315 -16q-123 0 -187.5 77.5t-64.5 206.5q0 82 25.5 157t73 134t113.5 93t148 34t138.5 -36t86 -101t29.5 -152q0 -79 -25 -153t-72.5 -132.5t-114 -93t-150.5 -34.5zM318 25q72 0 129 31.5t97 85.5t61 122t21 141q0 113 -54 176.5t-150 63.5q-75 0 -132.5 -33
t-96.5 -88.5t-59 -123t-20 -136.5q0 -110 53.5 -174.5t150.5 -64.5zM376 765l205 105l19 -43l-210 -93z" />
    <glyph glyph-name="Racute" unicode="&#x154;" horiz-adv-x="586" 
d="M41 0l143 670h186q110 0 158 -44t48 -115q0 -85 -62.5 -141.5t-183.5 -63.5q68 -24 110.5 -95.5t59.5 -210.5h-50q-14 118 -45 183t-83 90.5t-128 25.5h-42l-64 -299h-47zM361 632h-139l-62 -295h139q113 0 170.5 47.5t57.5 123.5q0 60 -38.5 92t-127.5 32zM307 765
l205 105l19 -43l-210 -93z" />
    <glyph glyph-name="Sacute" unicode="&#x15a;" horiz-adv-x="568" 
d="M246 -16q-100 0 -160.5 44t-60.5 123v12t1 13h50q-1 -4 -1 -8.5v-8.5q0 -49 24.5 -78.5t64.5 -42.5t87 -13q96 0 150.5 46t54.5 117q0 50 -30 81t-91 48l-78 21q-61 16 -99.5 52.5t-38.5 98.5q0 51 28 96t81 73t129 28q98 0 152.5 -47.5t54.5 -122.5v-9.5t-1 -10.5h-51
q1 9 1 14v10q0 32 -16 60.5t-51.5 46.5t-91.5 18q-89 0 -137 -44t-48 -108q0 -49 27 -74t75 -38l87 -24q71 -19 109.5 -60t38.5 -106q0 -59 -31.5 -105.5t-90 -74t-138.5 -27.5zM300 765l205 105l19 -43l-210 -93z" />
    <glyph glyph-name="Uacute" unicode="&#xda;" horiz-adv-x="642" 
d="M271 -16q-101 0 -149.5 48t-48.5 139q0 45 12 99l85 400h47l-87 -408q-5 -24 -8 -46t-3 -42q0 -148 157 -148q192 0 242 236l87 408h47l-87 -408q-29 -134 -100 -206t-194 -72zM346 765l205 105l19 -43l-210 -93z" />
    <glyph glyph-name="Wacute" unicode="&#x1e82;" horiz-adv-x="881" 
d="M154 0l-31 670h48l22 -621l316 621h45l27 -617l309 617h48l-341 -670h-56l-27 593l-303 -593h-57zM465 765l205 105l19 -43l-210 -93z" />
    <glyph glyph-name="Yacute" unicode="&#xdd;" horiz-adv-x="555" 
d="M192 0l58 271l-134 399h49l115 -362l289 362h50l-321 -399l-58 -271h-48zM294 765l205 105l19 -43l-210 -93z" />
    <glyph glyph-name="Zacute" unicode="&#x179;" horiz-adv-x="557" 
d="M153 631l9 39h441l-7 -33l-535 -598h405l-9 -39h-461l7 33l536 598h-386zM316 765l205 105l19 -43l-210 -93z" />
    <glyph glyph-name="Ohungarumlaut" unicode="&#x150;" horiz-adv-x="703" 
d="M315 -16q-123 0 -187.5 77.5t-64.5 206.5q0 82 25.5 157t73 134t113.5 93t148 34t138.5 -36t86 -101t29.5 -152q0 -79 -25 -153t-72.5 -132.5t-114 -93t-150.5 -34.5zM318 25q72 0 129 31.5t97 85.5t61 122t21 141q0 113 -54 176.5t-150 63.5q-75 0 -132.5 -33
t-96.5 -88.5t-59 -123t-20 -136.5q0 -110 53.5 -174.5t150.5 -64.5zM320 752l183 134l26 -40l-190 -123zM476 753l193 119l23 -41l-199 -108z" />
    <glyph glyph-name="Uhungarumlaut" unicode="&#x170;" horiz-adv-x="642" 
d="M271 -16q-101 0 -149.5 48t-48.5 139q0 45 12 99l85 400h47l-87 -408q-5 -24 -8 -46t-3 -42q0 -148 157 -148q192 0 242 236l87 408h47l-87 -408q-29 -134 -100 -206t-194 -72zM290 752l183 134l26 -40l-190 -123zM446 753l193 119l23 -41l-199 -108z" />
    <glyph glyph-name="aacute" unicode="&#xe1;" horiz-adv-x="495" 
d="M155 -13q-66 0 -101.5 34t-35.5 89q0 91 93.5 139t276.5 49l3 14q6 27 6 50q0 52 -29.5 81.5t-87.5 29.5q-59 0 -99.5 -29.5t-60.5 -85.5h-45q23 70 77 110.5t130 40.5q74 0 115.5 -38.5t41.5 -108.5q0 -15 -1.5 -30.5t-5.5 -32.5l-64 -299h-40l17 90q-32 -46 -81 -74.5
t-109 -28.5zM64 113q0 -41 26 -65t72 -24q48 0 91 22t73 60t40 85l15 73q-88 -1 -160 -15t-114.5 -46.5t-42.5 -89.5zM236 600l170 129l25 -35l-178 -118z" />
    <glyph glyph-name="cacute" unicode="&#x107;" horiz-adv-x="524" 
d="M235 -13q-88 0 -139 53.5t-51 151.5q0 59 19 115.5t54.5 102t85.5 72.5t112 27q83 0 127.5 -48.5t49.5 -121.5h-45q-4 58 -38 95.5t-98 37.5q-52 0 -93 -24.5t-69.5 -65.5t-43.5 -90.5t-15 -98.5q0 -82 39.5 -125.5t108.5 -43.5q62 0 109.5 37t70.5 107h44
q-27 -91 -88.5 -136t-139.5 -45zM267 600l170 129l25 -35l-178 -118z" />
    <glyph glyph-name="eacute" unicode="&#xe9;" horiz-adv-x="531" 
d="M239 -13q-92 0 -143 54.5t-51 149.5q0 58 18.5 114.5t54 102.5t85.5 73.5t113 27.5q60 0 99 -25.5t57.5 -69.5t18.5 -98q0 -19 -2 -38.5t-6 -39.5h-389q-4 -24 -4 -48q0 -80 39 -123t112 -43q65 0 109 34t66 95h44q-28 -82 -85 -124t-136 -42zM311 472q-54 0 -96.5 -27.5
t-71.5 -72.5t-42 -98h345q3 21 3 41q0 67 -34 112t-104 45zM268 600l170 129l25 -35l-178 -118z" />
    <glyph glyph-name="iacute" unicode="&#xed;" horiz-adv-x="203" 
d="M26 0l105 496h45l-105 -496h-45zM120 597l144 134l28 -33l-153 -123z" />
    <glyph glyph-name="iacute_j_acutecomb.locl" horiz-adv-x="535" 
d="M204 37q50 0 91.5 27t71 74.5t42.5 107.5l56 250h44l-108 -486q-25 -114 -80.5 -173.5t-149.5 -59.5q-83 0 -124.5 45t-45.5 125h46q0 -33 11 -63t38 -49.5t76 -19.5q70 0 118 46.5t67 140.5l21 101q-33 -50 -79 -76.5t-102 -26.5q-72 0 -107.5 41t-35.5 105q0 9 1.5 26
t6.5 40l62 284h44l-62 -279q-4 -19 -6 -36.5t-2 -29.5q0 -50 25.5 -82t80.5 -32zM96 600l170 129l25 -35l-178 -118zM438 600l170 129l25 -35l-178 -118z" />
    <glyph glyph-name="lacute" unicode="&#x13a;" horiz-adv-x="202" 
d="M26 0l149 700h44l-149 -700h-44zM139 792l189 103l19 -40l-194 -91z" />
    <glyph glyph-name="nacute" unicode="&#x144;" horiz-adv-x="550" 
d="M26 0l105 496h40l-20 -106q33 60 81.5 89.5t107.5 29.5q75 0 113 -43t38 -109q0 -17 -2 -35.5t-5 -34.5l-61 -287h-44l60 282q3 16 5 34t2 34q0 56 -28 89t-86 33q-74 0 -130 -57.5t-79 -165.5l-53 -249h-44zM281 600l170 129l25 -35l-178 -118z" />
    <glyph glyph-name="oacute" unicode="&#xf3;" horiz-adv-x="548" 
d="M236 -13q-87 0 -139 55.5t-52 153.5q0 56 18.5 111.5t53 101t84 73t111.5 27.5q87 0 139 -55.5t52 -153.5q0 -56 -18.5 -111.5t-53 -101t-84 -73t-111.5 -27.5zM240 24q51 0 91 23.5t68 63.5t43 89t15 99q0 85 -40.5 129t-108.5 44q-51 0 -91 -23.5t-68 -63.5t-43 -89
t-15 -99q0 -85 40.5 -129t108.5 -44zM264 600l170 129l25 -35l-178 -118z" />
    <glyph glyph-name="racute" unicode="&#x155;" horiz-adv-x="317" 
d="M25 0l106 496h40l-22 -111q29 51 73 85t100 34q14 0 30 -4l-9 -42q-5 2 -13 2.5t-15 0.5q-43 0 -82.5 -27.5t-68.5 -76.5t-43 -115l-52 -242h-44zM179 600l170 129l25 -35l-178 -118z" />
    <glyph glyph-name="sacute" unicode="&#x15b;" horiz-adv-x="459" 
d="M214 -13q-66 0 -109.5 23t-65 60.5t-21.5 79.5h46q0 -53 38.5 -90.5t115.5 -37.5q67 0 98 29t31 76q0 38 -21.5 61t-70.5 41l-63 23q-57 21 -82 48t-25 67q0 35 19 67.5t57.5 53.5t96.5 21q49 0 82 -14.5t53 -37.5t29.5 -48.5t11.5 -47.5h-46q-2 25 -14 51t-40 44t-77 18
q-60 0 -94 -28.5t-34 -73.5q0 -31 18.5 -50t61.5 -35l69 -25q48 -17 81 -46.5t33 -84.5q0 -39 -19 -72t-58.5 -52.5t-100.5 -19.5zM222 600l170 129l25 -35l-178 -118z" />
    <glyph glyph-name="uacute" unicode="&#xfa;" horiz-adv-x="535" 
d="M197 -13q-71 0 -107 41.5t-36 109.5q0 16 2 34t6 37l61 287h44l-61 -282q-4 -20 -6 -36.5t-2 -32.5q0 -56 26 -88.5t79 -32.5q76 0 131.5 61t76.5 161l53 250h44l-105 -496h-40l20 104q-34 -59 -82 -88t-104 -29zM266 600l170 129l25 -35l-178 -118z" />
    <glyph glyph-name="wacute" unicode="&#x1e83;" horiz-adv-x="683" 
d="M103 0l-27 496h45l20 -441l235 441h45l21 -443l230 443h45l-263 -496h-48l-24 430l-232 -430h-47zM348 600l170 129l25 -35l-178 -118z" />
    <glyph glyph-name="yacute" unicode="&#xfd;" horiz-adv-x="447" 
d="M-37 -223q-42 0 -73 22l15 32q12 -7 29 -11.5t32 -4.5q34 0 63 25.5t66 87.5l52 86l-68 482h46l56 -427l253 427h47l-348 -579q-35 -59 -63 -89t-53.5 -40.5t-53.5 -10.5zM226 600l170 129l25 -35l-178 -118z" />
    <glyph glyph-name="zacute" unicode="&#x17a;" horiz-adv-x="431" 
d="M-20 0l8 36l403 424h-302l8 36h354l-8 -36l-403 -424h321l-8 -36h-373zM218 600l170 129l25 -35l-178 -118z" />
    <glyph glyph-name="ohungarumlaut" unicode="&#x151;" horiz-adv-x="548" 
d="M236 -13q-87 0 -139 55.5t-52 153.5q0 56 18.5 111.5t53 101t84 73t111.5 27.5q87 0 139 -55.5t52 -153.5q0 -56 -18.5 -111.5t-53 -101t-84 -73t-111.5 -27.5zM240 24q51 0 91 23.5t68 63.5t43 89t15 99q0 85 -40.5 129t-108.5 44q-51 0 -91 -23.5t-68 -63.5t-43 -89
t-15 -99q0 -85 40.5 -129t108.5 -44zM196 595l154 141l28 -32l-163 -131zM351 597l165 126l25 -35l-173 -115z" />
    <glyph glyph-name="uhungarumlaut" unicode="&#x171;" horiz-adv-x="535" 
d="M197 -13q-71 0 -107 41.5t-36 109.5q0 16 2 34t6 37l61 287h44l-61 -282q-4 -20 -6 -36.5t-2 -32.5q0 -56 26 -88.5t79 -32.5q76 0 131.5 61t76.5 161l53 250h44l-105 -496h-40l20 104q-34 -59 -82 -88t-104 -29zM198 595l154 141l28 -32l-163 -131zM353 597l165 126
l25 -35l-173 -115z" />
    <glyph glyph-name="aacute.ss01" horiz-adv-x="551" 
d="M204 -13q-75 0 -118 50.5t-43 142.5q0 62 19.5 121t54.5 106t82 74.5t103 27.5q70 0 108.5 -38.5t45.5 -93.5l30 119h40l-110 -496h-40l19 101q-33 -53 -83 -83.5t-108 -30.5zM213 24q47 0 91 27.5t76 75t44 107.5l2 10q3 15 5.5 33t2.5 38q0 42 -13.5 77.5t-42 56.5
t-74.5 21q-50 0 -89.5 -25.5t-67 -67.5t-42.5 -92.5t-15 -100.5q0 -76 33.5 -118t89.5 -42zM260 600l170 129l25 -35l-178 -118z" />
    <glyph glyph-name="gravecomb" unicode="&#x300;" 
d="M-46 729l127 -138l-21 -21l-139 127z" />
    <glyph glyph-name="glyph350" 
d="M-74 871l168 -111l-18 -29l-178 98z" />
    <glyph glyph-name="glyph351" 
d="M-27 731l92 -138l-24 -18l-106 129z" />
    <glyph glyph-name="grave" unicode="`" horiz-adv-x="500" 
d="M257 729l127 -138l-21 -21l-139 127z" />
    <glyph glyph-name="Agrave" unicode="&#xc0;" horiz-adv-x="593" 
d="M-22 0l382 670h52l99 -670h-45l-26 181h-311l-102 -181h-49zM151 220h284l-57 404zM324 871l168 -111l-18 -29l-178 98z" />
    <glyph glyph-name="Egrave" unicode="&#xc8;" horiz-adv-x="533" 
d="M41 0l143 670h380l-9 -39h-332l-59 -276h305l-8 -37h-305l-60 -279h338l-8 -39h-385zM313 871l168 -111l-18 -29l-178 98z" />
    <glyph glyph-name="Igrave" unicode="&#xcc;" horiz-adv-x="234" 
d="M41 0l143 670h47l-143 -670h-47zM144 871l168 -111l-18 -29l-178 98z" />
    <glyph glyph-name="Ograve" unicode="&#xd2;" horiz-adv-x="703" 
d="M315 -16q-123 0 -187.5 77.5t-64.5 206.5q0 82 25.5 157t73 134t113.5 93t148 34t138.5 -36t86 -101t29.5 -152q0 -79 -25 -153t-72.5 -132.5t-114 -93t-150.5 -34.5zM318 25q72 0 129 31.5t97 85.5t61 122t21 141q0 113 -54 176.5t-150 63.5q-75 0 -132.5 -33
t-96.5 -88.5t-59 -123t-20 -136.5q0 -110 53.5 -174.5t150.5 -64.5zM378 871l168 -111l-18 -29l-178 98z" />
    <glyph glyph-name="Ugrave" unicode="&#xd9;" horiz-adv-x="642" 
d="M271 -16q-101 0 -149.5 48t-48.5 139q0 45 12 99l85 400h47l-87 -408q-5 -24 -8 -46t-3 -42q0 -148 157 -148q192 0 242 236l87 408h47l-87 -408q-29 -134 -100 -206t-194 -72zM348 871l168 -111l-18 -29l-178 98z" />
    <glyph glyph-name="Wgrave" unicode="&#x1e80;" horiz-adv-x="881" 
d="M154 0l-31 670h48l22 -621l316 621h45l27 -617l309 617h48l-341 -670h-56l-27 593l-303 -593h-57zM467 871l168 -111l-18 -29l-178 98z" />
    <glyph glyph-name="Ygrave" unicode="&#x1ef2;" horiz-adv-x="555" 
d="M192 0l58 271l-134 399h49l115 -362l289 362h50l-321 -399l-58 -271h-48zM296 871l168 -111l-18 -29l-178 98z" />
    <glyph glyph-name="agrave" unicode="&#xe0;" horiz-adv-x="495" 
d="M155 -13q-66 0 -101.5 34t-35.5 89q0 91 93.5 139t276.5 49l3 14q6 27 6 50q0 52 -29.5 81.5t-87.5 29.5q-59 0 -99.5 -29.5t-60.5 -85.5h-45q23 70 77 110.5t130 40.5q74 0 115.5 -38.5t41.5 -108.5q0 -15 -1.5 -30.5t-5.5 -32.5l-64 -299h-40l17 90q-32 -46 -81 -74.5
t-109 -28.5zM64 113q0 -41 26 -65t72 -24q48 0 91 22t73 60t40 85l15 73q-88 -1 -160 -15t-114.5 -46.5t-42.5 -89.5zM250 729l127 -138l-21 -21l-139 127z" />
    <glyph glyph-name="egrave" unicode="&#xe8;" horiz-adv-x="531" 
d="M239 -13q-92 0 -143 54.5t-51 149.5q0 58 18.5 114.5t54 102.5t85.5 73.5t113 27.5q60 0 99 -25.5t57.5 -69.5t18.5 -98q0 -19 -2 -38.5t-6 -39.5h-389q-4 -24 -4 -48q0 -80 39 -123t112 -43q65 0 109 34t66 95h44q-28 -82 -85 -124t-136 -42zM311 472q-54 0 -96.5 -27.5
t-71.5 -72.5t-42 -98h345q3 21 3 41q0 67 -34 112t-104 45zM282 729l127 -138l-21 -21l-139 127z" />
    <glyph glyph-name="igrave" unicode="&#xec;" horiz-adv-x="203" 
d="M26 0l105 496h45l-105 -496h-45zM137 731l92 -138l-24 -18l-106 129z" />
    <glyph glyph-name="ograve" unicode="&#xf2;" horiz-adv-x="548" 
d="M236 -13q-87 0 -139 55.5t-52 153.5q0 56 18.5 111.5t53 101t84 73t111.5 27.5q87 0 139 -55.5t52 -153.5q0 -56 -18.5 -111.5t-53 -101t-84 -73t-111.5 -27.5zM240 24q51 0 91 23.5t68 63.5t43 89t15 99q0 85 -40.5 129t-108.5 44q-51 0 -91 -23.5t-68 -63.5t-43 -89
t-15 -99q0 -85 40.5 -129t108.5 -44zM278 729l127 -138l-21 -21l-139 127z" />
    <glyph glyph-name="ugrave" unicode="&#xf9;" horiz-adv-x="535" 
d="M197 -13q-71 0 -107 41.5t-36 109.5q0 16 2 34t6 37l61 287h44l-61 -282q-4 -20 -6 -36.5t-2 -32.5q0 -56 26 -88.5t79 -32.5q76 0 131.5 61t76.5 161l53 250h44l-105 -496h-40l20 104q-34 -59 -82 -88t-104 -29zM280 729l127 -138l-21 -21l-139 127z" />
    <glyph glyph-name="wgrave" unicode="&#x1e81;" horiz-adv-x="683" 
d="M103 0l-27 496h45l20 -441l235 441h45l21 -443l230 443h45l-263 -496h-48l-24 430l-232 -430h-47zM362 729l127 -138l-21 -21l-139 127z" />
    <glyph glyph-name="ygrave" unicode="&#x1ef3;" horiz-adv-x="447" 
d="M-37 -223q-42 0 -73 22l15 32q12 -7 29 -11.5t32 -4.5q34 0 63 25.5t66 87.5l52 86l-68 482h46l56 -427l253 427h47l-348 -579q-35 -59 -63 -89t-53.5 -40.5t-53.5 -10.5zM240 729l127 -138l-21 -21l-139 127z" />
    <glyph glyph-name="agrave.ss01" horiz-adv-x="551" 
d="M203 -13q-75 0 -118 50.5t-43 142.5q0 62 19.5 121t54.5 106t82 74.5t103 27.5q70 0 108.5 -38.5t45.5 -93.5l30 119h40l-110 -496h-40l19 101q-33 -53 -83 -83.5t-108 -30.5zM212 24q47 0 91 27.5t76 75t44 107.5l2 10q3 15 5.5 33t2.5 38q0 42 -13.5 77.5t-42 56.5
t-74.5 21q-50 0 -89.5 -25.5t-67 -67.5t-42.5 -92.5t-15 -100.5q0 -76 33.5 -118t89.5 -42zM273 729l127 -138l-21 -21l-139 127z" />
    <glyph glyph-name="uni0302" unicode="&#x302;" 
d="M47 730l104 -149l-23 -18l-99 117l-150 -117l-18 22l163 145h23z" />
    <glyph glyph-name="glyph369" 
d="M43 894l110 -115l-23 -24l-108 94l-158 -94l-17 27l161 112h35z" />
    <glyph glyph-name="glyph370" 
d="M47 730l82 -154l-25 -15l-75 116l-134 -116l-19 21l147 148h24z" />
    <glyph glyph-name="circumflex" unicode="&#x2c6;" horiz-adv-x="500" 
d="M347 730l104 -149l-23 -18l-99 117l-150 -117l-18 22l163 145h23z" />
    <glyph glyph-name="tildecomb" unicode="&#x303;" 
d="M6 631q-11 12 -21.5 20.5t-21.5 8.5q-13 0 -29 -14.5t-29 -54.5h-34q12 49 37.5 78t58.5 29q22 0 36.5 -11.5t30.5 -30.5q13 -14 22.5 -21.5t20.5 -7.5q13 0 28.5 14.5t28.5 54.5h35q-12 -46 -37 -76.5t-60 -30.5q-25 0 -38.5 14z" />
    <glyph glyph-name="glyph373" 
d="M1 789q-11 14 -21 22.5t-24 8.5q-15 0 -34 -15t-33 -57h-39q14 52 44 82.5t69 30.5q25 0 39.5 -12t30.5 -31q12 -14 22.5 -22.5t23.5 -8.5q15 0 33.5 15t32.5 57h39q-14 -53 -43.5 -83t-68.5 -30q-26 0 -41.5 13t-29.5 30z" />
    <glyph glyph-name="glyph374" 
d="M8 630q-10 14 -18 22t-19 8q-13 0 -27 -14.5t-25 -54.5h-32q11 48 34.5 77.5t54.5 29.5q20 0 32 -11.5t26 -30.5q10 -14 17.5 -21.5t18.5 -7.5q13 0 26.5 14.5t24.5 54.5h32q-12 -53 -36 -80t-51 -27q-20 0 -32.5 12t-25.5 29z" />
    <glyph glyph-name="tilde" unicode="&#x2dc;" horiz-adv-x="500" 
d="M310 631q-11 12 -21.5 20.5t-21.5 8.5q-13 0 -29 -14.5t-29 -54.5h-34q12 49 37.5 78t58.5 29q22 0 36.5 -11.5t30.5 -30.5q13 -14 22.5 -21.5t20.5 -7.5q13 0 28.5 14.5t28.5 54.5h35q-12 -46 -37 -76.5t-60 -30.5q-25 0 -38.5 14z" />
    <glyph glyph-name="Acircumflex" unicode="&#xc2;" horiz-adv-x="593" 
d="M-22 0l382 670h52l99 -670h-45l-26 181h-311l-102 -181h-49zM151 220h284l-57 404zM441 864l110 -115l-23 -24l-108 94l-158 -94l-17 27l161 112h35z" />
    <glyph glyph-name="Ecircumflex" unicode="&#xca;" horiz-adv-x="533" 
d="M41 0l143 670h380l-9 -39h-332l-59 -276h305l-8 -37h-305l-60 -279h338l-8 -39h-385zM430 864l110 -115l-23 -24l-108 94l-158 -94l-17 27l161 112h35z" />
    <glyph glyph-name="Icircumflex" unicode="&#xce;" horiz-adv-x="234" 
d="M41 0l143 670h47l-143 -670h-47zM261 864l110 -115l-23 -24l-108 94l-158 -94l-17 27l161 112h35z" />
    <glyph glyph-name="Ocircumflex" unicode="&#xd4;" horiz-adv-x="703" 
d="M315 -16q-123 0 -187.5 77.5t-64.5 206.5q0 82 25.5 157t73 134t113.5 93t148 34t138.5 -36t86 -101t29.5 -152q0 -79 -25 -153t-72.5 -132.5t-114 -93t-150.5 -34.5zM318 25q72 0 129 31.5t97 85.5t61 122t21 141q0 113 -54 176.5t-150 63.5q-75 0 -132.5 -33
t-96.5 -88.5t-59 -123t-20 -136.5q0 -110 53.5 -174.5t150.5 -64.5zM495 864l110 -115l-23 -24l-108 94l-158 -94l-17 27l161 112h35z" />
    <glyph glyph-name="Ucircumflex" unicode="&#xdb;" horiz-adv-x="642" 
d="M271 -16q-101 0 -149.5 48t-48.5 139q0 45 12 99l85 400h47l-87 -408q-5 -24 -8 -46t-3 -42q0 -148 157 -148q192 0 242 236l87 408h47l-87 -408q-29 -134 -100 -206t-194 -72zM465 864l110 -115l-23 -24l-108 94l-158 -94l-17 27l161 112h35z" />
    <glyph glyph-name="Wcircumflex" unicode="&#x174;" horiz-adv-x="881" 
d="M154 0l-31 670h48l22 -621l316 621h45l27 -617l309 617h48l-341 -670h-56l-27 593l-303 -593h-57zM584 864l110 -115l-23 -24l-108 94l-158 -94l-17 27l161 112h35z" />
    <glyph glyph-name="Ycircumflex" unicode="&#x176;" horiz-adv-x="555" 
d="M192 0l58 271l-134 399h49l115 -362l289 362h50l-321 -399l-58 -271h-48zM413 864l110 -115l-23 -24l-108 94l-158 -94l-17 27l161 112h35z" />
    <glyph glyph-name="Atilde" unicode="&#xc3;" horiz-adv-x="593" 
d="M-22 0l382 670h52l99 -670h-45l-26 181h-311l-102 -181h-49zM151 220h284l-57 404zM399 789q-11 14 -21 22.5t-24 8.5q-15 0 -34 -15t-33 -57h-39q14 52 44 82.5t69 30.5q25 0 39.5 -12t30.5 -31q12 -14 22.5 -22.5t23.5 -8.5q15 0 33.5 15t32.5 57h39q-14 -53 -43.5 -83
t-68.5 -30q-26 0 -41.5 13t-29.5 30z" />
    <glyph glyph-name="Itilde" unicode="&#x128;" horiz-adv-x="234" 
d="M41 0l143 670h47l-143 -670h-47zM219 789q-11 14 -21 22.5t-24 8.5q-15 0 -34 -15t-33 -57h-39q14 52 44 82.5t69 30.5q25 0 39.5 -12t30.5 -31q12 -14 22.5 -22.5t23.5 -8.5q15 0 33.5 15t32.5 57h39q-14 -53 -43.5 -83t-68.5 -30q-26 0 -41.5 13t-29.5 30z" />
    <glyph glyph-name="Ntilde" unicode="&#xd1;" horiz-adv-x="674" 
d="M41 0l142 670h48l266 -601l127 601h47l-142 -670h-48l-266 601l-127 -601h-47zM438 789q-11 14 -21 22.5t-24 8.5q-15 0 -34 -15t-33 -57h-39q14 52 44 82.5t69 30.5q25 0 39.5 -12t30.5 -31q12 -14 22.5 -22.5t23.5 -8.5q15 0 33.5 15t32.5 57h39q-14 -53 -43.5 -83
t-68.5 -30q-26 0 -41.5 13t-29.5 30z" />
    <glyph glyph-name="Otilde" unicode="&#xd5;" horiz-adv-x="703" 
d="M315 -16q-123 0 -187.5 77.5t-64.5 206.5q0 82 25.5 157t73 134t113.5 93t148 34t138.5 -36t86 -101t29.5 -152q0 -79 -25 -153t-72.5 -132.5t-114 -93t-150.5 -34.5zM318 25q72 0 129 31.5t97 85.5t61 122t21 141q0 113 -54 176.5t-150 63.5q-75 0 -132.5 -33
t-96.5 -88.5t-59 -123t-20 -136.5q0 -110 53.5 -174.5t150.5 -64.5zM453 789q-11 14 -21 22.5t-24 8.5q-15 0 -34 -15t-33 -57h-39q14 52 44 82.5t69 30.5q25 0 39.5 -12t30.5 -31q12 -14 22.5 -22.5t23.5 -8.5q15 0 33.5 15t32.5 57h39q-14 -53 -43.5 -83t-68.5 -30
q-26 0 -41.5 13t-29.5 30z" />
    <glyph glyph-name="Utilde" unicode="&#x168;" horiz-adv-x="642" 
d="M271 -16q-101 0 -149.5 48t-48.5 139q0 45 12 99l85 400h47l-87 -408q-5 -24 -8 -46t-3 -42q0 -148 157 -148q192 0 242 236l87 408h47l-87 -408q-29 -134 -100 -206t-194 -72zM423 789q-11 14 -21 22.5t-24 8.5q-15 0 -34 -15t-33 -57h-39q14 52 44 82.5t69 30.5
q25 0 39.5 -12t30.5 -31q12 -14 22.5 -22.5t23.5 -8.5q15 0 33.5 15t32.5 57h39q-14 -53 -43.5 -83t-68.5 -30q-26 0 -41.5 13t-29.5 30z" />
    <glyph glyph-name="acircumflex" unicode="&#xe2;" horiz-adv-x="495" 
d="M155 -13q-66 0 -101.5 34t-35.5 89q0 91 93.5 139t276.5 49l3 14q6 27 6 50q0 52 -29.5 81.5t-87.5 29.5q-59 0 -99.5 -29.5t-60.5 -85.5h-45q23 70 77 110.5t130 40.5q74 0 115.5 -38.5t41.5 -108.5q0 -15 -1.5 -30.5t-5.5 -32.5l-64 -299h-40l17 90q-32 -46 -81 -74.5
t-109 -28.5zM64 113q0 -41 26 -65t72 -24q48 0 91 22t73 60t40 85l15 73q-88 -1 -160 -15t-114.5 -46.5t-42.5 -89.5zM343 730l104 -149l-23 -18l-99 117l-150 -117l-18 22l163 145h23z" />
    <glyph glyph-name="ecircumflex" unicode="&#xea;" horiz-adv-x="531" 
d="M239 -13q-92 0 -143 54.5t-51 149.5q0 58 18.5 114.5t54 102.5t85.5 73.5t113 27.5q60 0 99 -25.5t57.5 -69.5t18.5 -98q0 -19 -2 -38.5t-6 -39.5h-389q-4 -24 -4 -48q0 -80 39 -123t112 -43q65 0 109 34t66 95h44q-28 -82 -85 -124t-136 -42zM311 472q-54 0 -96.5 -27.5
t-71.5 -72.5t-42 -98h345q3 21 3 41q0 67 -34 112t-104 45zM375 730l104 -149l-23 -18l-99 117l-150 -117l-18 22l163 145h23z" />
    <glyph glyph-name="icircumflex" unicode="&#xee;" horiz-adv-x="203" 
d="M26 0l105 496h45l-105 -496h-45zM211 730l82 -154l-25 -15l-75 116l-134 -116l-19 21l147 148h24z" />
    <glyph glyph-name="ocircumflex" unicode="&#xf4;" horiz-adv-x="548" 
d="M236 -13q-87 0 -139 55.5t-52 153.5q0 56 18.5 111.5t53 101t84 73t111.5 27.5q87 0 139 -55.5t52 -153.5q0 -56 -18.5 -111.5t-53 -101t-84 -73t-111.5 -27.5zM240 24q51 0 91 23.5t68 63.5t43 89t15 99q0 85 -40.5 129t-108.5 44q-51 0 -91 -23.5t-68 -63.5t-43 -89
t-15 -99q0 -85 40.5 -129t108.5 -44zM371 730l104 -149l-23 -18l-99 117l-150 -117l-18 22l163 145h23z" />
    <glyph glyph-name="ucircumflex" unicode="&#xfb;" horiz-adv-x="535" 
d="M197 -13q-71 0 -107 41.5t-36 109.5q0 16 2 34t6 37l61 287h44l-61 -282q-4 -20 -6 -36.5t-2 -32.5q0 -56 26 -88.5t79 -32.5q76 0 131.5 61t76.5 161l53 250h44l-105 -496h-40l20 104q-34 -59 -82 -88t-104 -29zM373 730l104 -149l-23 -18l-99 117l-150 -117l-18 22
l163 145h23z" />
    <glyph glyph-name="wcircumflex" unicode="&#x175;" horiz-adv-x="683" 
d="M103 0l-27 496h45l20 -441l235 441h45l21 -443l230 443h45l-263 -496h-48l-24 430l-232 -430h-47zM455 730l104 -149l-23 -18l-99 117l-150 -117l-18 22l163 145h23z" />
    <glyph glyph-name="ycircumflex" unicode="&#x177;" horiz-adv-x="447" 
d="M-37 -223q-42 0 -73 22l15 32q12 -7 29 -11.5t32 -4.5q34 0 63 25.5t66 87.5l52 86l-68 482h46l56 -427l253 427h47l-348 -579q-35 -59 -63 -89t-53.5 -40.5t-53.5 -10.5zM333 730l104 -149l-23 -18l-99 117l-150 -117l-18 22l163 145h23z" />
    <glyph glyph-name="atilde" unicode="&#xe3;" horiz-adv-x="495" 
d="M155 -13q-66 0 -101.5 34t-35.5 89q0 91 93.5 139t276.5 49l3 14q6 27 6 50q0 52 -29.5 81.5t-87.5 29.5q-59 0 -99.5 -29.5t-60.5 -85.5h-45q23 70 77 110.5t130 40.5q74 0 115.5 -38.5t41.5 -108.5q0 -15 -1.5 -30.5t-5.5 -32.5l-64 -299h-40l17 90q-32 -46 -81 -74.5
t-109 -28.5zM64 113q0 -41 26 -65t72 -24q48 0 91 22t73 60t40 85l15 73q-88 -1 -160 -15t-114.5 -46.5t-42.5 -89.5zM302 631q-11 12 -21.5 20.5t-21.5 8.5q-13 0 -29 -14.5t-29 -54.5h-34q12 49 37.5 78t58.5 29q22 0 36.5 -11.5t30.5 -30.5q13 -14 22.5 -21.5t20.5 -7.5
q13 0 28.5 14.5t28.5 54.5h35q-12 -46 -37 -76.5t-60 -30.5q-25 0 -38.5 14z" />
    <glyph glyph-name="itilde" unicode="&#x129;" horiz-adv-x="203" 
d="M26 0l105 496h45l-105 -496h-45zM172 630q-10 14 -18 22t-19 8q-13 0 -27 -14.5t-25 -54.5h-32q11 48 34.5 77.5t54.5 29.5q20 0 32 -11.5t26 -30.5q10 -14 17.5 -21.5t18.5 -7.5q13 0 26.5 14.5t24.5 54.5h32q-12 -53 -36 -80t-51 -27q-20 0 -32.5 12t-25.5 29z" />
    <glyph glyph-name="ntilde" unicode="&#xf1;" horiz-adv-x="550" 
d="M26 0l105 496h40l-20 -106q33 60 81.5 89.5t107.5 29.5q75 0 113 -43t38 -109q0 -17 -2 -35.5t-5 -34.5l-61 -287h-44l60 282q3 16 5 34t2 34q0 56 -28 89t-86 33q-74 0 -130 -57.5t-79 -165.5l-53 -249h-44zM347 631q-11 12 -21.5 20.5t-21.5 8.5q-13 0 -29 -14.5
t-29 -54.5h-34q12 49 37.5 78t58.5 29q22 0 36.5 -11.5t30.5 -30.5q13 -14 22.5 -21.5t20.5 -7.5q13 0 28.5 14.5t28.5 54.5h35q-12 -46 -37 -76.5t-60 -30.5q-25 0 -38.5 14z" />
    <glyph glyph-name="otilde" unicode="&#xf5;" horiz-adv-x="548" 
d="M236 -13q-87 0 -139 55.5t-52 153.5q0 56 18.5 111.5t53 101t84 73t111.5 27.5q87 0 139 -55.5t52 -153.5q0 -56 -18.5 -111.5t-53 -101t-84 -73t-111.5 -27.5zM240 24q51 0 91 23.5t68 63.5t43 89t15 99q0 85 -40.5 129t-108.5 44q-51 0 -91 -23.5t-68 -63.5t-43 -89
t-15 -99q0 -85 40.5 -129t108.5 -44zM330 631q-11 12 -21.5 20.5t-21.5 8.5q-13 0 -29 -14.5t-29 -54.5h-34q12 49 37.5 78t58.5 29q22 0 36.5 -11.5t30.5 -30.5q13 -14 22.5 -21.5t20.5 -7.5q13 0 28.5 14.5t28.5 54.5h35q-12 -46 -37 -76.5t-60 -30.5q-25 0 -38.5 14z" />
    <glyph glyph-name="utilde" unicode="&#x169;" horiz-adv-x="535" 
d="M197 -13q-71 0 -107 41.5t-36 109.5q0 16 2 34t6 37l61 287h44l-61 -282q-4 -20 -6 -36.5t-2 -32.5q0 -56 26 -88.5t79 -32.5q76 0 131.5 61t76.5 161l53 250h44l-105 -496h-40l20 104q-34 -59 -82 -88t-104 -29zM332 631q-11 12 -21.5 20.5t-21.5 8.5q-13 0 -29 -14.5
t-29 -54.5h-34q12 49 37.5 78t58.5 29q22 0 36.5 -11.5t30.5 -30.5q13 -14 22.5 -21.5t20.5 -7.5q13 0 28.5 14.5t28.5 54.5h35q-12 -46 -37 -76.5t-60 -30.5q-25 0 -38.5 14z" />
    <glyph glyph-name="acircumflex.ss01" horiz-adv-x="551" 
d="M204 -13q-75 0 -118 50.5t-43 142.5q0 62 19.5 121t54.5 106t82 74.5t103 27.5q70 0 108.5 -38.5t45.5 -93.5l30 119h40l-110 -496h-40l19 101q-33 -53 -83 -83.5t-108 -30.5zM213 24q47 0 91 27.5t76 75t44 107.5l2 10q3 15 5.5 33t2.5 38q0 42 -13.5 77.5t-42 56.5
t-74.5 21q-50 0 -89.5 -25.5t-67 -67.5t-42.5 -92.5t-15 -100.5q0 -76 33.5 -118t89.5 -42zM367 730l104 -149l-23 -18l-99 117l-150 -117l-18 22l163 145h23z" />
    <glyph glyph-name="atilde.ss01" horiz-adv-x="551" 
d="M204 -13q-75 0 -118 50.5t-43 142.5q0 62 19.5 121t54.5 106t82 74.5t103 27.5q70 0 108.5 -38.5t45.5 -93.5l30 119h40l-110 -496h-40l19 101q-33 -53 -83 -83.5t-108 -30.5zM213 24q47 0 91 27.5t76 75t44 107.5l2 10q3 15 5.5 33t2.5 38q0 42 -13.5 77.5t-42 56.5
t-74.5 21q-50 0 -89.5 -25.5t-67 -67.5t-42.5 -92.5t-15 -100.5q0 -76 33.5 -118t89.5 -42zM326 631q-11 12 -21.5 20.5t-21.5 8.5q-13 0 -29 -14.5t-29 -54.5h-34q12 49 37.5 78t58.5 29q22 0 36.5 -11.5t30.5 -30.5q13 -14 22.5 -21.5t20.5 -7.5q13 0 28.5 14.5t28.5 54.5
h35q-12 -46 -37 -76.5t-60 -30.5q-25 0 -38.5 14z" />
    <glyph glyph-name="uni030C" unicode="&#x30c;" 
d="M-2 571l-102 151l21 16l99 -119l150 119l17 -20l-162 -147h-23z" />
    <glyph glyph-name="glyph403" 
d="M-9 767l-110 116l23 23l109 -95l157 95l17 -25l-161 -114h-35z" />
    <glyph glyph-name="caron" unicode="&#x2c7;" horiz-adv-x="500" 
d="M302 571l-102 151l21 16l99 -119l150 119l17 -20l-162 -147h-23z" />
    <glyph glyph-name="uni0315" unicode="&#x315;" 
d="M9 531h-17l36 169h40l-2 -9q-10 -47 -25 -88t-32 -72z" />
    <glyph glyph-name="glyph406" 
d="M-3 499h-19l36 171h43l-2 -9q-11 -48 -26.5 -90.5t-31.5 -71.5z" />
    <glyph glyph-name="glyph407" 
d="M8 555h-18l31 145h40l-2 -9q-9 -41 -22 -74t-29 -62z" />
    <glyph glyph-name="uni0304" unicode="&#x304;" 
d="M-113 605l8 36h252l-8 -36h-252z" />
    <glyph glyph-name="glyph409" 
d="M-133 771l9 39h286l-9 -39h-286z" />
    <glyph glyph-name="glyph410" 
d="M-93 605l8 36h212l-8 -36h-212z" />
    <glyph glyph-name="macron" unicode="&#xaf;" horiz-adv-x="500" 
d="M191 605l8 36h252l-8 -36h-252z" />
    <glyph glyph-name="Ccaron" unicode="&#x10c;" horiz-adv-x="659" 
d="M312 -16q-121 0 -185 72t-64 202q0 84 26 161t73.5 137t112 95t142.5 35q62 0 117 -24.5t89 -76t34 -131.5h-51q0 52 -21.5 95.5t-64 69.5t-105.5 26q-70 0 -125.5 -33t-94.5 -88t-60 -124t-21 -141q0 -114 52.5 -174t151.5 -60q88 0 148 47t94 138h52
q-40 -112 -117.5 -169t-182.5 -57zM421 737l-110 116l23 23l109 -95l157 95l17 -25l-161 -114h-35z" />
    <glyph glyph-name="Dcaron" unicode="&#x10e;" horiz-adv-x="673" 
d="M41 0l143 670h190q140 0 206.5 -72t66.5 -194q0 -84 -29 -157.5t-83.5 -128.5t-131.5 -86.5t-173 -31.5h-189zM362 630h-139l-126 -590h136q113 0 194.5 48t125 130t43.5 184q0 109 -55 168.5t-179 59.5zM411 737l-110 116l23 23l109 -95l157 95l17 -25l-161 -114h-35z
" />
    <glyph glyph-name="Ecaron" unicode="&#x11a;" horiz-adv-x="533" 
d="M41 0l143 670h380l-9 -39h-332l-59 -276h305l-8 -37h-305l-60 -279h338l-8 -39h-385zM378 737l-110 116l23 23l109 -95l157 95l17 -25l-161 -114h-35z" />
    <glyph glyph-name="Lcaron" unicode="&#x13d;" horiz-adv-x="498" 
d="M41 0l143 670h47l-135 -630h326l-9 -40h-372zM400 499h-19l36 171h43l-2 -9q-11 -48 -26.5 -90.5t-31.5 -71.5z" />
    <glyph glyph-name="Ncaron" unicode="&#x147;" horiz-adv-x="674" 
d="M41 0l142 670h48l266 -601l127 601h47l-142 -670h-48l-266 601l-127 -601h-47zM428 737l-110 116l23 23l109 -95l157 95l17 -25l-161 -114h-35z" />
    <glyph glyph-name="Rcaron" unicode="&#x158;" horiz-adv-x="586" 
d="M41 0l143 670h186q110 0 158 -44t48 -115q0 -85 -62.5 -141.5t-183.5 -63.5q68 -24 110.5 -95.5t59.5 -210.5h-50q-14 118 -45 183t-83 90.5t-128 25.5h-42l-64 -299h-47zM361 632h-139l-62 -295h139q113 0 170.5 47.5t57.5 123.5q0 60 -38.5 92t-127.5 32zM374 737
l-110 116l23 23l109 -95l157 95l17 -25l-161 -114h-35z" />
    <glyph glyph-name="Scaron" unicode="&#x160;" horiz-adv-x="568" 
d="M246 -16q-100 0 -160.5 44t-60.5 123v12t1 13h50q-1 -4 -1 -8.5v-8.5q0 -49 24.5 -78.5t64.5 -42.5t87 -13q96 0 150.5 46t54.5 117q0 50 -30 81t-91 48l-78 21q-61 16 -99.5 52.5t-38.5 98.5q0 51 28 96t81 73t129 28q98 0 152.5 -47.5t54.5 -122.5v-9.5t-1 -10.5h-51
q1 9 1 14v10q0 32 -16 60.5t-51.5 46.5t-91.5 18q-89 0 -137 -44t-48 -108q0 -49 27 -74t75 -38l87 -24q71 -19 109.5 -60t38.5 -106q0 -59 -31.5 -105.5t-90 -74t-138.5 -27.5zM367 737l-110 116l23 23l109 -95l157 95l17 -25l-161 -114h-35z" />
    <glyph glyph-name="Tcaron" unicode="&#x164;" horiz-adv-x="556" 
d="M198 0l134 630h-224l9 40h502l-9 -40h-231l-134 -630h-47zM365 737l-110 116l23 23l109 -95l157 95l17 -25l-161 -114h-35z" />
    <glyph glyph-name="Zcaron" unicode="&#x17d;" horiz-adv-x="557" 
d="M153 631l9 39h441l-7 -33l-535 -598h405l-9 -39h-461l7 33l536 598h-386zM383 737l-110 116l23 23l109 -95l157 95l17 -25l-161 -114h-35z" />
    <glyph glyph-name="Amacron" unicode="&#x100;" horiz-adv-x="593" 
d="M-22 0l382 670h52l99 -670h-45l-26 181h-311l-102 -181h-49zM151 220h284l-57 404zM265 771l9 39h286l-9 -39h-286z" />
    <glyph glyph-name="Emacron" unicode="&#x112;" horiz-adv-x="533" 
d="M41 0l143 670h380l-9 -39h-332l-59 -276h305l-8 -37h-305l-60 -279h338l-8 -39h-385zM254 771l9 39h286l-9 -39h-286z" />
    <glyph glyph-name="Imacron" unicode="&#x12a;" horiz-adv-x="234" 
d="M41 0l143 670h47l-143 -670h-47zM85 771l9 39h286l-9 -39h-286z" />
    <glyph glyph-name="Umacron" unicode="&#x16a;" horiz-adv-x="642" 
d="M271 -16q-101 0 -149.5 48t-48.5 139q0 45 12 99l85 400h47l-87 -408q-5 -24 -8 -46t-3 -42q0 -148 157 -148q192 0 242 236l87 408h47l-87 -408q-29 -134 -100 -206t-194 -72zM289 771l9 39h286l-9 -39h-286z" />
    <glyph glyph-name="ccaron" unicode="&#x10d;" horiz-adv-x="524" 
d="M235 -13q-88 0 -139 53.5t-51 151.5q0 59 19 115.5t54.5 102t85.5 72.5t112 27q83 0 127.5 -48.5t49.5 -121.5h-45q-4 58 -38 95.5t-98 37.5q-52 0 -93 -24.5t-69.5 -65.5t-43.5 -90.5t-15 -98.5q0 -82 39.5 -125.5t108.5 -43.5q62 0 109.5 37t70.5 107h44
q-27 -91 -88.5 -136t-139.5 -45zM325 571l-102 151l21 16l99 -119l150 119l17 -20l-162 -147h-23z" />
    <glyph glyph-name="dcaron" unicode="&#x10f;" horiz-adv-x="572" 
d="M206 -13q-75 0 -118 50.5t-43 142.5q0 62 19.5 121t54.5 106t82 74.5t103 27.5q67 0 104.5 -35.5t47.5 -87.5l67 314h44l-149 -700h-40l18 100q-33 -53 -82.5 -83t-107.5 -30zM215 24q47 0 91 27.5t76 75t44 107.5l2 10q3 15 5.5 33t2.5 38q0 42 -13.5 77.5t-42 56.5
t-74.5 21q-50 0 -89.5 -25.5t-67 -67.5t-42.5 -92.5t-15 -100.5q0 -76 33.5 -118t89.5 -42zM619 531h-17l36 169h40l-2 -9q-10 -47 -25 -88t-32 -72z" />
    <glyph glyph-name="ecaron" unicode="&#x11b;" horiz-adv-x="531" 
d="M239 -13q-92 0 -143 54.5t-51 149.5q0 58 18.5 114.5t54 102.5t85.5 73.5t113 27.5q60 0 99 -25.5t57.5 -69.5t18.5 -98q0 -19 -2 -38.5t-6 -39.5h-389q-4 -24 -4 -48q0 -80 39 -123t112 -43q65 0 109 34t66 95h44q-28 -82 -85 -124t-136 -42zM311 472q-54 0 -96.5 -27.5
t-71.5 -72.5t-42 -98h345q3 21 3 41q0 67 -34 112t-104 45zM326 571l-102 151l21 16l99 -119l150 119l17 -20l-162 -147h-23z" />
    <glyph glyph-name="lcaron" unicode="&#x13e;" horiz-adv-x="224" 
d="M26 0l149 700h44l-149 -700h-44zM271 531h-17l36 169h40l-2 -9q-10 -47 -25 -88t-32 -72z" />
    <glyph glyph-name="ncaron" unicode="&#x148;" horiz-adv-x="550" 
d="M26 0l105 496h40l-20 -106q33 60 81.5 89.5t107.5 29.5q75 0 113 -43t38 -109q0 -17 -2 -35.5t-5 -34.5l-61 -287h-44l60 282q3 16 5 34t2 34q0 56 -28 89t-86 33q-74 0 -130 -57.5t-79 -165.5l-53 -249h-44zM339 571l-102 151l21 16l99 -119l150 119l17 -20l-162 -147
h-23z" />
    <glyph glyph-name="rcaron" unicode="&#x159;" horiz-adv-x="317" 
d="M25 0l106 496h40l-22 -111q29 51 73 85t100 34q14 0 30 -4l-9 -42q-5 2 -13 2.5t-15 0.5q-43 0 -82.5 -27.5t-68.5 -76.5t-43 -115l-52 -242h-44zM237 571l-102 151l21 16l99 -119l150 119l17 -20l-162 -147h-23z" />
    <glyph glyph-name="scaron" unicode="&#x161;" horiz-adv-x="459" 
d="M214 -13q-66 0 -109.5 23t-65 60.5t-21.5 79.5h46q0 -53 38.5 -90.5t115.5 -37.5q67 0 98 29t31 76q0 38 -21.5 61t-70.5 41l-63 23q-57 21 -82 48t-25 67q0 35 19 67.5t57.5 53.5t96.5 21q49 0 82 -14.5t53 -37.5t29.5 -48.5t11.5 -47.5h-46q-2 25 -14 51t-40 44t-77 18
q-60 0 -94 -28.5t-34 -73.5q0 -31 18.5 -50t61.5 -35l69 -25q48 -17 81 -46.5t33 -84.5q0 -39 -19 -72t-58.5 -52.5t-100.5 -19.5zM280 571l-102 151l21 16l99 -119l150 119l17 -20l-162 -147h-23z" />
    <glyph glyph-name="tcaron" unicode="&#x165;" horiz-adv-x="332" 
d="M184 -13q-58 0 -92 30.5t-34 87.5q0 12 1.5 22t4.5 26l65 306h-70l8 37h69l32 150h44l-32 -150h156l-8 -37h-155l-65 -306q-6 -27 -6 -49q0 -45 24 -62.5t63 -17.5q15 0 28 2t29 7l7 -34q-23 -7 -38 -9.5t-31 -2.5zM273 555h-18l31 145h40l-2 -9q-9 -41 -22 -74t-29 -62z
" />
    <glyph glyph-name="zcaron" unicode="&#x17e;" horiz-adv-x="431" 
d="M-20 0l8 36l403 424h-302l8 36h354l-8 -36l-403 -424h321l-8 -36h-373zM276 571l-102 151l21 16l99 -119l150 119l17 -20l-162 -147h-23z" />
    <glyph glyph-name="amacron" unicode="&#x101;" horiz-adv-x="495" 
d="M155 -13q-66 0 -101.5 34t-35.5 89q0 91 93.5 139t276.5 49l3 14q6 27 6 50q0 52 -29.5 81.5t-87.5 29.5q-59 0 -99.5 -29.5t-60.5 -85.5h-45q23 70 77 110.5t130 40.5q74 0 115.5 -38.5t41.5 -108.5q0 -15 -1.5 -30.5t-5.5 -32.5l-64 -299h-40l17 90q-32 -46 -81 -74.5
t-109 -28.5zM64 113q0 -41 26 -65t72 -24q48 0 91 22t73 60t40 85l15 73q-88 -1 -160 -15t-114.5 -46.5t-42.5 -89.5zM183 605l8 36h252l-8 -36h-252z" />
    <glyph glyph-name="emacron" unicode="&#x113;" horiz-adv-x="531" 
d="M239 -13q-92 0 -143 54.5t-51 149.5q0 58 18.5 114.5t54 102.5t85.5 73.5t113 27.5q60 0 99 -25.5t57.5 -69.5t18.5 -98q0 -19 -2 -38.5t-6 -39.5h-389q-4 -24 -4 -48q0 -80 39 -123t112 -43q65 0 109 34t66 95h44q-28 -82 -85 -124t-136 -42zM311 472q-54 0 -96.5 -27.5
t-71.5 -72.5t-42 -98h345q3 21 3 41q0 67 -34 112t-104 45zM215 605l8 36h252l-8 -36h-252z" />
    <glyph glyph-name="imacron" unicode="&#x12b;" horiz-adv-x="203" 
d="M26 0l105 496h45l-105 -496h-45zM71 605l8 36h212l-8 -36h-212z" />
    <glyph glyph-name="umacron" unicode="&#x16b;" horiz-adv-x="535" 
d="M197 -13q-71 0 -107 41.5t-36 109.5q0 16 2 34t6 37l61 287h44l-61 -282q-4 -20 -6 -36.5t-2 -32.5q0 -56 26 -88.5t79 -32.5q76 0 131.5 61t76.5 161l53 250h44l-105 -496h-40l20 104q-34 -59 -82 -88t-104 -29zM213 605l8 36h252l-8 -36h-252z" />
    <glyph glyph-name="amacron.ss01" horiz-adv-x="551" 
d="M204 -13q-75 0 -118 50.5t-43 142.5q0 62 19.5 121t54.5 106t82 74.5t103 27.5q70 0 108.5 -38.5t45.5 -93.5l30 119h40l-110 -496h-40l19 101q-33 -53 -83 -83.5t-108 -30.5zM213 24q47 0 91 27.5t76 75t44 107.5l2 10q3 15 5.5 33t2.5 38q0 42 -13.5 77.5t-42 56.5
t-74.5 21q-50 0 -89.5 -25.5t-67 -67.5t-42.5 -92.5t-15 -100.5q0 -76 33.5 -118t89.5 -42zM207 605l8 36h252l-8 -36h-252z" />
    <glyph glyph-name="uni0308" unicode="&#x308;" 
d="M-77 590q-13 0 -23 8t-10 23q0 17 12 29t29 12q13 0 23 -8t10 -23q0 -17 -12 -29t-29 -12zM103 590q-13 0 -23 8t-10 23q0 17 12 29t29 12q13 0 23 -8t10 -23q0 -17 -12 -29t-29 -12z" />
    <glyph glyph-name="glyph440" 
d="M-86 766q-14 0 -24.5 8.5t-10.5 24.5q0 17 12.5 30t30.5 13q14 0 24.5 -8.5t10.5 -24.5q0 -17 -12.5 -30t-30.5 -13zM114 766q-14 0 -24.5 8.5t-10.5 24.5q0 17 12.5 30t30.5 13q14 0 24.5 -8.5t10.5 -24.5q0 -17 -12.5 -30t-30.5 -13z" />
    <glyph glyph-name="glyph441" 
d="M-64 590q-13 0 -23 8t-10 23q0 17 12 29t29 12q13 0 23 -8t10 -23q0 -17 -12 -29t-29 -12zM90 590q-13 0 -23 8t-10 23q0 17 12 29t29 12q13 0 23 -8t10 -23q0 -17 -12 -29t-29 -12z" />
    <glyph glyph-name="dieresis" unicode="&#xa8;" horiz-adv-x="500" 
d="M229 590q-13 0 -23 8t-10 23q0 17 12 29t29 12q13 0 23 -8t10 -23q0 -17 -12 -29t-29 -12zM409 590q-13 0 -23 8t-10 23q0 17 12 29t29 12q13 0 23 -8t10 -23q0 -17 -12 -29t-29 -12z" />
    <glyph glyph-name="uni0306" unicode="&#x306;" 
d="M11 572q-58 0 -89.5 32t-31.5 80v8.5t1 10.5h38v-5q0 -44 23 -66t62 -22q44 0 74 25.5t44 67.5h39q-15 -57 -57 -94t-103 -37z" />
    <glyph glyph-name="glyph444" 
d="M10 767q-66 0 -99.5 32.5t-33.5 79.5v7.5t1 10.5h40q0 -48 27.5 -68.5t68.5 -20.5q50 0 83 25t48 64h41q-16 -60 -62.5 -95t-113.5 -35z" />
    <glyph glyph-name="breve" unicode="&#x2d8;" horiz-adv-x="500" 
d="M318 572q-58 0 -89.5 32t-31.5 80v8.5t1 10.5h38v-5q0 -44 23 -66t62 -22q44 0 74 25.5t44 67.5h39q-15 -57 -57 -94t-103 -37z" />
    <glyph glyph-name="Adieresis" unicode="&#xc4;" horiz-adv-x="593" 
d="M-22 0l382 670h52l99 -670h-45l-26 181h-311l-102 -181h-49zM151 220h284l-57 404zM312 766q-14 0 -24.5 8.5t-10.5 24.5q0 17 12.5 30t30.5 13q14 0 24.5 -8.5t10.5 -24.5q0 -17 -12.5 -30t-30.5 -13zM512 766q-14 0 -24.5 8.5t-10.5 24.5q0 17 12.5 30t30.5 13
q14 0 24.5 -8.5t10.5 -24.5q0 -17 -12.5 -30t-30.5 -13z" />
    <glyph glyph-name="Edieresis" unicode="&#xcb;" horiz-adv-x="533" 
d="M41 0l143 670h380l-9 -39h-332l-59 -276h305l-8 -37h-305l-60 -279h338l-8 -39h-385zM301 766q-14 0 -24.5 8.5t-10.5 24.5q0 17 12.5 30t30.5 13q14 0 24.5 -8.5t10.5 -24.5q0 -17 -12.5 -30t-30.5 -13zM501 766q-14 0 -24.5 8.5t-10.5 24.5q0 17 12.5 30t30.5 13
q14 0 24.5 -8.5t10.5 -24.5q0 -17 -12.5 -30t-30.5 -13z" />
    <glyph glyph-name="Idieresis" unicode="&#xcf;" horiz-adv-x="234" 
d="M41 0l143 670h47l-143 -670h-47zM132 766q-14 0 -24.5 8.5t-10.5 24.5q0 17 12.5 30t30.5 13q14 0 24.5 -8.5t10.5 -24.5q0 -17 -12.5 -30t-30.5 -13zM332 766q-14 0 -24.5 8.5t-10.5 24.5q0 17 12.5 30t30.5 13q14 0 24.5 -8.5t10.5 -24.5q0 -17 -12.5 -30t-30.5 -13z
" />
    <glyph glyph-name="Odieresis" unicode="&#xd6;" horiz-adv-x="703" 
d="M315 -16q-123 0 -187.5 77.5t-64.5 206.5q0 82 25.5 157t73 134t113.5 93t148 34t138.5 -36t86 -101t29.5 -152q0 -79 -25 -153t-72.5 -132.5t-114 -93t-150.5 -34.5zM318 25q72 0 129 31.5t97 85.5t61 122t21 141q0 113 -54 176.5t-150 63.5q-75 0 -132.5 -33
t-96.5 -88.5t-59 -123t-20 -136.5q0 -110 53.5 -174.5t150.5 -64.5zM366 766q-14 0 -24.5 8.5t-10.5 24.5q0 17 12.5 30t30.5 13q14 0 24.5 -8.5t10.5 -24.5q0 -17 -12.5 -30t-30.5 -13zM566 766q-14 0 -24.5 8.5t-10.5 24.5q0 17 12.5 30t30.5 13q14 0 24.5 -8.5
t10.5 -24.5q0 -17 -12.5 -30t-30.5 -13z" />
    <glyph glyph-name="Udieresis" unicode="&#xdc;" horiz-adv-x="642" 
d="M271 -16q-101 0 -149.5 48t-48.5 139q0 45 12 99l85 400h47l-87 -408q-5 -24 -8 -46t-3 -42q0 -148 157 -148q192 0 242 236l87 408h47l-87 -408q-29 -134 -100 -206t-194 -72zM336 766q-14 0 -24.5 8.5t-10.5 24.5q0 17 12.5 30t30.5 13q14 0 24.5 -8.5t10.5 -24.5
q0 -17 -12.5 -30t-30.5 -13zM536 766q-14 0 -24.5 8.5t-10.5 24.5q0 17 12.5 30t30.5 13q14 0 24.5 -8.5t10.5 -24.5q0 -17 -12.5 -30t-30.5 -13z" />
    <glyph glyph-name="Wdieresis" unicode="&#x1e84;" horiz-adv-x="881" 
d="M154 0l-31 670h48l22 -621l316 621h45l27 -617l309 617h48l-341 -670h-56l-27 593l-303 -593h-57zM455 766q-14 0 -24.5 8.5t-10.5 24.5q0 17 12.5 30t30.5 13q14 0 24.5 -8.5t10.5 -24.5q0 -17 -12.5 -30t-30.5 -13zM655 766q-14 0 -24.5 8.5t-10.5 24.5q0 17 12.5 30
t30.5 13q14 0 24.5 -8.5t10.5 -24.5q0 -17 -12.5 -30t-30.5 -13z" />
    <glyph glyph-name="Ydieresis" unicode="&#x178;" horiz-adv-x="555" 
d="M192 0l58 271l-134 399h49l115 -362l289 362h50l-321 -399l-58 -271h-48zM284 766q-14 0 -24.5 8.5t-10.5 24.5q0 17 12.5 30t30.5 13q14 0 24.5 -8.5t10.5 -24.5q0 -17 -12.5 -30t-30.5 -13zM484 766q-14 0 -24.5 8.5t-10.5 24.5q0 17 12.5 30t30.5 13q14 0 24.5 -8.5
t10.5 -24.5q0 -17 -12.5 -30t-30.5 -13z" />
    <glyph glyph-name="Abreve" unicode="&#x102;" horiz-adv-x="593" 
d="M-22 0l382 670h52l99 -670h-45l-26 181h-311l-102 -181h-49zM151 220h284l-57 404zM408 737q-66 0 -99.5 32.5t-33.5 79.5v7.5t1 10.5h40q0 -48 27.5 -68.5t68.5 -20.5q50 0 83 25t48 64h41q-16 -60 -62.5 -95t-113.5 -35z" />
    <glyph glyph-name="Gbreve" unicode="&#x11e;" horiz-adv-x="685" 
d="M324 -16q-128 0 -194.5 72.5t-66.5 204.5q0 85 26.5 161.5t74.5 136t114 93.5t145 34q64 0 119.5 -24.5t90 -76t34.5 -131.5h-51q0 52 -22 95.5t-65.5 69.5t-107.5 26q-71 0 -127.5 -32t-96.5 -86.5t-61.5 -123.5t-21.5 -142q0 -116 54.5 -176t159.5 -60q114 0 180 69
t87 192h-204l8 39h253l-5 -29q-16 -94 -55.5 -164t-105.5 -109t-162 -39zM447 737q-66 0 -99.5 32.5t-33.5 79.5v7.5t1 10.5h40q0 -48 27.5 -68.5t68.5 -20.5q50 0 83 25t48 64h41q-16 -60 -62.5 -95t-113.5 -35z" />
    <glyph glyph-name="adieresis" unicode="&#xe4;" horiz-adv-x="495" 
d="M155 -13q-66 0 -101.5 34t-35.5 89q0 91 93.5 139t276.5 49l3 14q6 27 6 50q0 52 -29.5 81.5t-87.5 29.5q-59 0 -99.5 -29.5t-60.5 -85.5h-45q23 70 77 110.5t130 40.5q74 0 115.5 -38.5t41.5 -108.5q0 -15 -1.5 -30.5t-5.5 -32.5l-64 -299h-40l17 90q-32 -46 -81 -74.5
t-109 -28.5zM64 113q0 -41 26 -65t72 -24q48 0 91 22t73 60t40 85l15 73q-88 -1 -160 -15t-114.5 -46.5t-42.5 -89.5zM219 590q-13 0 -23 8t-10 23q0 17 12 29t29 12q13 0 23 -8t10 -23q0 -17 -12 -29t-29 -12zM399 590q-13 0 -23 8t-10 23q0 17 12 29t29 12q13 0 23 -8
t10 -23q0 -17 -12 -29t-29 -12z" />
    <glyph glyph-name="edieresis" unicode="&#xeb;" horiz-adv-x="531" 
d="M239 -13q-92 0 -143 54.5t-51 149.5q0 58 18.5 114.5t54 102.5t85.5 73.5t113 27.5q60 0 99 -25.5t57.5 -69.5t18.5 -98q0 -19 -2 -38.5t-6 -39.5h-389q-4 -24 -4 -48q0 -80 39 -123t112 -43q65 0 109 34t66 95h44q-28 -82 -85 -124t-136 -42zM311 472q-54 0 -96.5 -27.5
t-71.5 -72.5t-42 -98h345q3 21 3 41q0 67 -34 112t-104 45zM251 590q-13 0 -23 8t-10 23q0 17 12 29t29 12q13 0 23 -8t10 -23q0 -17 -12 -29t-29 -12zM431 590q-13 0 -23 8t-10 23q0 17 12 29t29 12q13 0 23 -8t10 -23q0 -17 -12 -29t-29 -12z" />
    <glyph glyph-name="idieresis" unicode="&#xef;" horiz-adv-x="203" 
d="M26 0l105 496h45l-105 -496h-45zM100 590q-13 0 -23 8t-10 23q0 17 12 29t29 12q13 0 23 -8t10 -23q0 -17 -12 -29t-29 -12zM254 590q-13 0 -23 8t-10 23q0 17 12 29t29 12q13 0 23 -8t10 -23q0 -17 -12 -29t-29 -12z" />
    <glyph glyph-name="odieresis" unicode="&#xf6;" horiz-adv-x="548" 
d="M236 -13q-87 0 -139 55.5t-52 153.5q0 56 18.5 111.5t53 101t84 73t111.5 27.5q87 0 139 -55.5t52 -153.5q0 -56 -18.5 -111.5t-53 -101t-84 -73t-111.5 -27.5zM240 24q51 0 91 23.5t68 63.5t43 89t15 99q0 85 -40.5 129t-108.5 44q-51 0 -91 -23.5t-68 -63.5t-43 -89
t-15 -99q0 -85 40.5 -129t108.5 -44zM247 590q-13 0 -23 8t-10 23q0 17 12 29t29 12q13 0 23 -8t10 -23q0 -17 -12 -29t-29 -12zM427 590q-13 0 -23 8t-10 23q0 17 12 29t29 12q13 0 23 -8t10 -23q0 -17 -12 -29t-29 -12z" />
    <glyph glyph-name="udieresis" unicode="&#xfc;" horiz-adv-x="535" 
d="M197 -13q-71 0 -107 41.5t-36 109.5q0 16 2 34t6 37l61 287h44l-61 -282q-4 -20 -6 -36.5t-2 -32.5q0 -56 26 -88.5t79 -32.5q76 0 131.5 61t76.5 161l53 250h44l-105 -496h-40l20 104q-34 -59 -82 -88t-104 -29zM249 590q-13 0 -23 8t-10 23q0 17 12 29t29 12
q13 0 23 -8t10 -23q0 -17 -12 -29t-29 -12zM429 590q-13 0 -23 8t-10 23q0 17 12 29t29 12q13 0 23 -8t10 -23q0 -17 -12 -29t-29 -12z" />
    <glyph glyph-name="wdieresis" unicode="&#x1e85;" horiz-adv-x="683" 
d="M103 0l-27 496h45l20 -441l235 441h45l21 -443l230 443h45l-263 -496h-48l-24 430l-232 -430h-47zM331 590q-13 0 -23 8t-10 23q0 17 12 29t29 12q13 0 23 -8t10 -23q0 -17 -12 -29t-29 -12zM511 590q-13 0 -23 8t-10 23q0 17 12 29t29 12q13 0 23 -8t10 -23
q0 -17 -12 -29t-29 -12z" />
    <glyph glyph-name="ydieresis" unicode="&#xff;" horiz-adv-x="447" 
d="M-37 -223q-42 0 -73 22l15 32q12 -7 29 -11.5t32 -4.5q34 0 63 25.5t66 87.5l52 86l-68 482h46l56 -427l253 427h47l-348 -579q-35 -59 -63 -89t-53.5 -40.5t-53.5 -10.5zM209 590q-13 0 -23 8t-10 23q0 17 12 29t29 12q13 0 23 -8t10 -23q0 -17 -12 -29t-29 -12z
M389 590q-13 0 -23 8t-10 23q0 17 12 29t29 12q13 0 23 -8t10 -23q0 -17 -12 -29t-29 -12z" />
    <glyph glyph-name="abreve" unicode="&#x103;" horiz-adv-x="495" 
d="M155 -13q-66 0 -101.5 34t-35.5 89q0 91 93.5 139t276.5 49l3 14q6 27 6 50q0 52 -29.5 81.5t-87.5 29.5q-59 0 -99.5 -29.5t-60.5 -85.5h-45q23 70 77 110.5t130 40.5q74 0 115.5 -38.5t41.5 -108.5q0 -15 -1.5 -30.5t-5.5 -32.5l-64 -299h-40l17 90q-32 -46 -81 -74.5
t-109 -28.5zM64 113q0 -41 26 -65t72 -24q48 0 91 22t73 60t40 85l15 73q-88 -1 -160 -15t-114.5 -46.5t-42.5 -89.5zM307 572q-58 0 -89.5 32t-31.5 80v8.5t1 10.5h38v-5q0 -44 23 -66t62 -22q44 0 74 25.5t44 67.5h39q-15 -57 -57 -94t-103 -37z" />
    <glyph glyph-name="gbreve" unicode="&#x11f;" horiz-adv-x="549" 
d="M186 -185q77 0 122.5 47t64.5 138l22 103q-31 -46 -81.5 -74.5t-108.5 -28.5q-75 0 -118 50t-43 139q0 60 19.5 117t54.5 103t82.5 73t103.5 27q66 0 104 -36.5t47 -88.5l27 112h40l-104 -490q-24 -112 -79 -170.5t-154 -58.5q-89 0 -131 45t-46 125h46q0 -33 11 -63
t40 -49.5t81 -19.5zM216 37q48 0 91.5 26t75 70.5t42.5 100.5l2 10q3 15 5.5 33t2.5 38q0 42 -13.5 77.5t-42.5 56.5t-74 21q-49 0 -89 -24.5t-67.5 -65.5t-42.5 -90t-15 -97q0 -73 33 -114.5t92 -41.5zM332 572q-58 0 -89.5 32t-31.5 80v8.5t1 10.5h38v-5q0 -44 23 -66
t62 -22q44 0 74 25.5t44 67.5h39q-15 -57 -57 -94t-103 -37z" />
    <glyph glyph-name="adieresis.ss01" horiz-adv-x="551" 
d="M204 -13q-75 0 -118 50.5t-43 142.5q0 62 19.5 121t54.5 106t82 74.5t103 27.5q70 0 108.5 -38.5t45.5 -93.5l30 119h40l-110 -496h-40l19 101q-33 -53 -83 -83.5t-108 -30.5zM213 24q47 0 91 27.5t76 75t44 107.5l2 10q3 15 5.5 33t2.5 38q0 42 -13.5 77.5t-42 56.5
t-74.5 21q-50 0 -89.5 -25.5t-67 -67.5t-42.5 -92.5t-15 -100.5q0 -76 33.5 -118t89.5 -42zM243 590q-13 0 -23 8t-10 23q0 17 12 29t29 12q13 0 23 -8t10 -23q0 -17 -12 -29t-29 -12zM423 590q-13 0 -23 8t-10 23q0 17 12 29t29 12q13 0 23 -8t10 -23q0 -17 -12 -29
t-29 -12z" />
    <glyph glyph-name="abreve.ss01" horiz-adv-x="551" 
d="M204 -13q-75 0 -118 50.5t-43 142.5q0 62 19.5 121t54.5 106t82 74.5t103 27.5q70 0 108.5 -38.5t45.5 -93.5l30 119h40l-110 -496h-40l19 101q-33 -53 -83 -83.5t-108 -30.5zM213 24q47 0 91 27.5t76 75t44 107.5l2 10q3 15 5.5 33t2.5 38q0 42 -13.5 77.5t-42 56.5
t-74.5 21q-50 0 -89.5 -25.5t-67 -67.5t-42.5 -92.5t-15 -100.5q0 -76 33.5 -118t89.5 -42zM331 572q-58 0 -89.5 32t-31.5 80v8.5t1 10.5h38v-5q0 -44 23 -66t62 -22q44 0 74 25.5t44 67.5h39q-15 -57 -57 -94t-103 -37z" />
    <glyph glyph-name="uni0307" unicode="&#x307;" 
d="M14 596q-13 0 -23 8t-10 23q0 17 12 29t29 12q13 0 23 -8t10 -23q0 -17 -12 -29t-29 -12z" />
    <glyph glyph-name="glyph467" 
d="M14 769q-14 0 -24.5 8.5t-10.5 24.5q0 17 12.5 30t30.5 13q14 0 24.5 -8.5t10.5 -24.5q0 -17 -12.5 -30t-30.5 -13z" />
    <glyph glyph-name="dotaccent" unicode="&#x2d9;" horiz-adv-x="500" 
d="M311 596q-13 0 -23 8t-10 23q0 17 12 29t29 12q13 0 23 -8t10 -23q0 -17 -12 -29t-29 -12z" />
    <glyph glyph-name="dotbelowcomb" unicode="&#x323;" 
d="M-23 -171q-13 0 -23 8t-10 23q0 16 12 28.5t29 12.5q13 0 23 -8t10 -23q0 -16 -12 -28.5t-29 -12.5z" />
    <glyph glyph-name="glyph470" 
d="M-23 -175q-13 0 -24 8.5t-11 24.5q0 17 12.5 30t30.5 13q13 0 24 -8.5t11 -24.5q0 -17 -12.5 -30t-30.5 -13z" />
    <glyph glyph-name="Edotaccent" unicode="&#x116;" horiz-adv-x="533" 
d="M41 0l143 670h380l-9 -39h-332l-59 -276h305l-8 -37h-305l-60 -279h338l-8 -39h-385zM401 769q-14 0 -24.5 8.5t-10.5 24.5q0 17 12.5 30t30.5 13q14 0 24.5 -8.5t10.5 -24.5q0 -17 -12.5 -30t-30.5 -13z" />
    <glyph glyph-name="Cdotaccent" unicode="&#x10a;" horiz-adv-x="659" 
d="M312 -16q-121 0 -185 72t-64 202q0 84 26 161t73.5 137t112 95t142.5 35q62 0 117 -24.5t89 -76t34 -131.5h-51q0 52 -21.5 95.5t-64 69.5t-105.5 26q-70 0 -125.5 -33t-94.5 -88t-60 -124t-21 -141q0 -114 52.5 -174t151.5 -60q88 0 148 47t94 138h52
q-40 -112 -117.5 -169t-182.5 -57zM444 769q-14 0 -24.5 8.5t-10.5 24.5q0 17 12.5 30t30.5 13q14 0 24.5 -8.5t10.5 -24.5q0 -17 -12.5 -30t-30.5 -13z" />
    <glyph glyph-name="Idotaccent" unicode="&#x130;" horiz-adv-x="234" 
d="M41 0l143 670h47l-143 -670h-47zM232 769q-14 0 -24.5 8.5t-10.5 24.5q0 17 12.5 30t30.5 13q14 0 24.5 -8.5t10.5 -24.5q0 -17 -12.5 -30t-30.5 -13z" />
    <glyph glyph-name="Gdotaccent" unicode="&#x120;" horiz-adv-x="685" 
d="M324 -16q-128 0 -194.5 72.5t-66.5 204.5q0 85 26.5 161.5t74.5 136t114 93.5t145 34q64 0 119.5 -24.5t90 -76t34.5 -131.5h-51q0 52 -22 95.5t-65.5 69.5t-107.5 26q-71 0 -127.5 -32t-96.5 -86.5t-61.5 -123.5t-21.5 -142q0 -116 54.5 -176t159.5 -60q114 0 180 69
t87 192h-204l8 39h253l-5 -29q-16 -94 -55.5 -164t-105.5 -109t-162 -39zM451 769q-14 0 -24.5 8.5t-10.5 24.5q0 17 12.5 30t30.5 13q14 0 24.5 -8.5t10.5 -24.5q0 -17 -12.5 -30t-30.5 -13z" />
    <glyph glyph-name="Zdotaccent" unicode="&#x17b;" horiz-adv-x="557" 
d="M153 631l9 39h441l-7 -33l-535 -598h405l-9 -39h-461l7 33l536 598h-386zM406 769q-14 0 -24.5 8.5t-10.5 24.5q0 17 12.5 30t30.5 13q14 0 24.5 -8.5t10.5 -24.5q0 -17 -12.5 -30t-30.5 -13z" />
    <glyph glyph-name="uni1E24" unicode="&#x1e24;" horiz-adv-x="662" 
d="M41 0l143 670h47l-67 -315h381l67 315h47l-143 -670h-47l67 316h-381l-67 -316h-47zM247 -175q-13 0 -24 8.5t-11 24.5q0 17 12.5 30t30.5 13q13 0 24 -8.5t11 -24.5q0 -17 -12.5 -30t-30.5 -13z" />
    <glyph glyph-name="uni1E36" unicode="&#x1e36;" horiz-adv-x="498" 
d="M41 0l143 670h47l-135 -630h326l-9 -40h-372zM203 -175q-13 0 -24 8.5t-11 24.5q0 17 12.5 30t30.5 13q13 0 24 -8.5t11 -24.5q0 -17 -12.5 -30t-30.5 -13z" />
    <glyph glyph-name="edotaccent" unicode="&#x117;" horiz-adv-x="531" 
d="M239 -13q-92 0 -143 54.5t-51 149.5q0 58 18.5 114.5t54 102.5t85.5 73.5t113 27.5q60 0 99 -25.5t57.5 -69.5t18.5 -98q0 -19 -2 -38.5t-6 -39.5h-389q-4 -24 -4 -48q0 -80 39 -123t112 -43q65 0 109 34t66 95h44q-28 -82 -85 -124t-136 -42zM311 472q-54 0 -96.5 -27.5
t-71.5 -72.5t-42 -98h345q3 21 3 41q0 67 -34 112t-104 45zM342 596q-13 0 -23 8t-10 23q0 17 12 29t29 12q13 0 23 -8t10 -23q0 -17 -12 -29t-29 -12z" />
    <glyph glyph-name="cdotaccent" unicode="&#x10b;" horiz-adv-x="524" 
d="M235 -13q-88 0 -139 53.5t-51 151.5q0 59 19 115.5t54.5 102t85.5 72.5t112 27q83 0 127.5 -48.5t49.5 -121.5h-45q-4 58 -38 95.5t-98 37.5q-52 0 -93 -24.5t-69.5 -65.5t-43.5 -90.5t-15 -98.5q0 -82 39.5 -125.5t108.5 -43.5q62 0 109.5 37t70.5 107h44
q-27 -91 -88.5 -136t-139.5 -45zM341 596q-13 0 -23 8t-10 23q0 17 12 29t29 12q13 0 23 -8t10 -23q0 -17 -12 -29t-29 -12z" />
    <glyph glyph-name="gdotaccent" unicode="&#x121;" horiz-adv-x="549" 
d="M186 -185q77 0 122.5 47t64.5 138l22 103q-31 -46 -81.5 -74.5t-108.5 -28.5q-75 0 -118 50t-43 139q0 60 19.5 117t54.5 103t82.5 73t103.5 27q66 0 104 -36.5t47 -88.5l27 112h40l-104 -490q-24 -112 -79 -170.5t-154 -58.5q-89 0 -131 45t-46 125h46q0 -33 11 -63
t40 -49.5t81 -19.5zM216 37q48 0 91.5 26t75 70.5t42.5 100.5l2 10q3 15 5.5 33t2.5 38q0 42 -13.5 77.5t-42.5 56.5t-74 21q-49 0 -89 -24.5t-67.5 -65.5t-42.5 -90t-15 -97q0 -73 33 -114.5t92 -41.5zM335 596q-13 0 -23 8t-10 23q0 17 12 29t29 12q13 0 23 -8t10 -23
q0 -17 -12 -29t-29 -12z" />
    <glyph glyph-name="zdotaccent" unicode="&#x17c;" horiz-adv-x="431" 
d="M-20 0l8 36l403 424h-302l8 36h354l-8 -36l-403 -424h321l-8 -36h-373zM292 596q-13 0 -23 8t-10 23q0 17 12 29t29 12q13 0 23 -8t10 -23q0 -17 -12 -29t-29 -12z" />
    <glyph glyph-name="uni1E25" unicode="&#x1e25;" horiz-adv-x="549" 
d="M25 0l149 700h44l-65 -306q34 58 83 86.5t107 28.5q73 0 110 -41.5t37 -112.5q0 -14 -1.5 -31.5t-5.5 -36.5l-61 -287h-44l60 282q4 19 6 35.5t2 33.5q0 56 -27 88.5t-83 32.5q-76 0 -133 -59t-80 -163l-54 -250h-44zM192 -171q-13 0 -23 8t-10 23q0 16 12 28.5t29 12.5
q13 0 23 -8t10 -23q0 -16 -12 -28.5t-29 -12.5z" />
    <glyph glyph-name="uni1E37" unicode="&#x1e37;" horiz-adv-x="202" 
d="M26 0l149 700h44l-149 -700h-44zM14 -171q-13 0 -23 8t-10 23q0 16 12 28.5t29 12.5q13 0 23 -8t10 -23q0 -16 -12 -28.5t-29 -12.5z" />
    <glyph glyph-name="uni030A" unicode="&#x30a;" 
d="M15 561q-47 0 -72 27t-25 67q0 32 16 59t43 43.5t60 16.5q47 0 72 -27t25 -67q0 -32 -16 -59t-43 -43.5t-60 -16.5zM15 593q36 0 59 25t23 63q0 27 -15.5 44t-44.5 17q-36 0 -59 -25t-23 -63q0 -27 15.5 -44t44.5 -17z" />
    <glyph glyph-name="glyph485" 
d="M17 743q-49 0 -75 28.5t-26 69.5q0 33 16.5 61t44 45t62.5 17q49 0 75 -28.5t26 -69.5q0 -33 -16.5 -61t-44 -45t-62.5 -17zM17 780q35 0 58 25t23 62q0 26 -15 43t-44 17q-35 0 -58 -24.5t-23 -62.5q0 -26 15 -43t44 -17z" />
    <glyph glyph-name="ring" unicode="&#x2da;" horiz-adv-x="500" 
d="M331 561q-47 0 -72 27t-25 67q0 32 16 59t43 43.5t60 16.5q47 0 72 -27t25 -67q0 -32 -16 -59t-43 -43.5t-60 -16.5zM331 593q36 0 59 25t23 63q0 27 -15.5 44t-44.5 17q-36 0 -59 -25t-23 -63q0 -27 15.5 -44t44.5 -17z" />
    <glyph glyph-name="Aring" unicode="&#xc5;" horiz-adv-x="593" 
d="M-22 0l382 670h52l99 -670h-45l-26 181h-311l-102 -181h-49zM151 220h284l-57 404zM415 743q-49 0 -75 28.5t-26 69.5q0 33 16.5 61t44 45t62.5 17q49 0 75 -28.5t26 -69.5q0 -33 -16.5 -61t-44 -45t-62.5 -17zM415 780q35 0 58 25t23 62q0 26 -15 43t-44 17
q-35 0 -58 -24.5t-23 -62.5q0 -26 15 -43t44 -17z" />
    <glyph glyph-name="Uring" unicode="&#x16e;" horiz-adv-x="642" 
d="M271 -16q-101 0 -149.5 48t-48.5 139q0 45 12 99l85 400h47l-87 -408q-5 -24 -8 -46t-3 -42q0 -148 157 -148q192 0 242 236l87 408h47l-87 -408q-29 -134 -100 -206t-194 -72zM439 743q-49 0 -75 28.5t-26 69.5q0 33 16.5 61t44 45t62.5 17q49 0 75 -28.5t26 -69.5
q0 -33 -16.5 -61t-44 -45t-62.5 -17zM439 780q35 0 58 25t23 62q0 26 -15 43t-44 17q-35 0 -58 -24.5t-23 -62.5q0 -26 15 -43t44 -17z" />
    <glyph glyph-name="aring" unicode="&#xe5;" horiz-adv-x="495" 
d="M155 -13q-66 0 -101.5 34t-35.5 89q0 91 93.5 139t276.5 49l3 14q6 27 6 50q0 52 -29.5 81.5t-87.5 29.5q-59 0 -99.5 -29.5t-60.5 -85.5h-45q23 70 77 110.5t130 40.5q74 0 115.5 -38.5t41.5 -108.5q0 -15 -1.5 -30.5t-5.5 -32.5l-64 -299h-40l17 90q-32 -46 -81 -74.5
t-109 -28.5zM64 113q0 -41 26 -65t72 -24q48 0 91 22t73 60t40 85l15 73q-88 -1 -160 -15t-114.5 -46.5t-42.5 -89.5zM311 561q-47 0 -72 27t-25 67q0 32 16 59t43 43.5t60 16.5q47 0 72 -27t25 -67q0 -32 -16 -59t-43 -43.5t-60 -16.5zM311 593q36 0 59 25t23 63
q0 27 -15.5 44t-44.5 17q-36 0 -59 -25t-23 -63q0 -27 15.5 -44t44.5 -17z" />
    <glyph glyph-name="uring" unicode="&#x16f;" horiz-adv-x="535" 
d="M197 -13q-71 0 -107 41.5t-36 109.5q0 16 2 34t6 37l61 287h44l-61 -282q-4 -20 -6 -36.5t-2 -32.5q0 -56 26 -88.5t79 -32.5q76 0 131.5 61t76.5 161l53 250h44l-105 -496h-40l20 104q-34 -59 -82 -88t-104 -29zM341 561q-47 0 -72 27t-25 67q0 32 16 59t43 43.5
t60 16.5q47 0 72 -27t25 -67q0 -32 -16 -59t-43 -43.5t-60 -16.5zM341 593q36 0 59 25t23 63q0 27 -15.5 44t-44.5 17q-36 0 -59 -25t-23 -63q0 -27 15.5 -44t44.5 -17z" />
    <glyph glyph-name="aring.ss01" horiz-adv-x="551" 
d="M204 -13q-75 0 -118 50.5t-43 142.5q0 62 19.5 121t54.5 106t82 74.5t103 27.5q70 0 108.5 -38.5t45.5 -93.5l30 119h40l-110 -496h-40l19 101q-33 -53 -83 -83.5t-108 -30.5zM213 24q47 0 91 27.5t76 75t44 107.5l2 10q3 15 5.5 33t2.5 38q0 42 -13.5 77.5t-42 56.5
t-74.5 21q-50 0 -89.5 -25.5t-67 -67.5t-42.5 -92.5t-15 -100.5q0 -76 33.5 -118t89.5 -42zM335 561q-47 0 -72 27t-25 67q0 32 16 59t43 43.5t60 16.5q47 0 72 -27t25 -67q0 -32 -16 -59t-43 -43.5t-60 -16.5zM335 593q36 0 59 25t23 63q0 27 -15.5 44t-44.5 17
q-36 0 -59 -25t-23 -63q0 -27 15.5 -44t44.5 -17z" />
    </font>
</defs>
</svg>
