<?xml version="1.0" standalone="no"?>
<!DOCTYPE svg PUBLIC "-//W3C//DTD SVG 1.1//EN" "http://www.w3.org/Graphics/SVG/1.1/DTD/svg11.dtd" >
<svg>
<metadata>
Created by FontForge 20090622 at Thu Nov 29 07:33:51 2018
 By deploy user
&#194;&#169;2018, McDonald&#226;&#128;&#153;s Corporation. All rights reserved.
</metadata>
<defs>
<font id="SpeedeeApp-Regular" horiz-adv-x="0" >
  <font-face 
    font-family="Speedee App"
    font-weight="400"
    font-stretch="normal"
    units-per-em="1000"
    panose-1="2 11 6 3 3 5 2 2 2 4"
    ascent="800"
    descent="-200"
    x-height="498"
    cap-height="670"
    bbox="-192 -309 1236 963"
    underline-thickness="40"
    underline-position="-65"
    unicode-range="U+000D-U+FB04"
  />
<missing-glyph horiz-adv-x="500" 
d="M447 0h-395v670h395v-670zM404 38v594h-309v-594h309z" />
    <glyph glyph-name="f_f.liga" unicode="ff" horiz-adv-x="665" 
d="M15 498h78v19q0 95 42 145.5t125 50.5q48 0 92 -22l-16 -57q-32 13 -64 13q-42 0 -65.5 -28t-23.5 -91v-30h231v19q0 95 42 145.5t126 50.5q47 0 91 -22l-15 -57q-33 13 -64 13q-43 0 -66.5 -28t-23.5 -91v-30h144v-64h-144v-434h-90v434h-231v-434h-90v434h-78v64z" />
    <glyph glyph-name="f_i.liga" unicode="fi" horiz-adv-x="579" 
d="M15 498h78v19q0 95 42 145.5t125 50.5q21 0 41 -4.5t41 -12.5l-16 -59q-27 10 -54 10q-42 0 -65.5 -28t-23.5 -91v-30h138v-64h-138v-434h-90v434h-78v64zM401 640q0 24 16.5 40t41.5 16q24 0 41 -16t17 -40q0 -25 -17 -41t-41 -16q-25 0 -41.5 16t-16.5 41zM414 498h90
v-498h-90v498z" />
    <glyph glyph-name="f_l.liga" unicode="fl" horiz-adv-x="574" 
d="M15 498h78v19q0 95 42 145.5t125 50.5q21 0 41 -4.5t41 -12.5l-16 -59q-27 10 -54 10q-42 0 -65.5 -28t-23.5 -91v-30h138v-64h-138v-434h-90v434h-78v64zM410 700h90v-700h-90v700z" />
    <glyph glyph-name="f_f_i.liga" unicode="ffi" horiz-adv-x="899" 
d="M15 498h78v19q0 95 42 145.5t125 50.5q48 0 92 -22l-16 -57q-32 13 -64 13q-42 0 -65.5 -28t-23.5 -91v-30h230v19q0 95 42 145.5t126 50.5q21 0 40.5 -4.5t40.5 -12.5l-16 -59q-27 10 -53 10q-43 0 -66.5 -28t-23.5 -91v-30h138v-64h-138v-434h-90v434h-230v-434h-90
v434h-78v64zM721 640q0 24 16.5 40t41.5 16q24 0 41 -16t17 -40q0 -25 -17 -41t-41 -16q-25 0 -41.5 16t-16.5 41zM734 498h90v-498h-90v498z" />
    <glyph glyph-name="f_f_l.liga" unicode="ffl" horiz-adv-x="894" 
d="M15 498h78v19q0 95 42 145.5t125 50.5q48 0 92 -22l-16 -57q-32 13 -64 13q-42 0 -65.5 -28t-23.5 -91v-30h230v19q0 95 42 145.5t126 50.5q21 0 40.5 -4.5t40.5 -12.5l-16 -59q-27 10 -53 10q-43 0 -66.5 -28t-23.5 -91v-30h138v-64h-138v-434h-90v434h-230v-434h-90
v434h-78v64zM730 700h90v-700h-90v700z" />
    <glyph glyph-name=".notdef" horiz-adv-x="500" 
d="M447 0h-395v670h395v-670zM404 38v594h-309v-594h309z" />
    <glyph glyph-name="glyph1" 
 />
    <glyph glyph-name="glyph1" 
 />
    <glyph glyph-name="uni000D" unicode="&#xd;" horiz-adv-x="200" 
 />
    <glyph glyph-name="space" unicode=" " horiz-adv-x="200" 
 />
    <glyph glyph-name="uni00A0" unicode="&#xa0;" horiz-adv-x="200" 
 />
    <glyph glyph-name="uni2000" unicode="&#x2000;" horiz-adv-x="500" 
 />
    <glyph glyph-name="uni2001" unicode="&#x2001;" horiz-adv-x="1000" 
 />
    <glyph glyph-name="uni2002" unicode="&#x2002;" horiz-adv-x="500" 
 />
    <glyph glyph-name="uni2003" unicode="&#x2003;" horiz-adv-x="1000" 
 />
    <glyph glyph-name="uni2004" unicode="&#x2004;" horiz-adv-x="333" 
 />
    <glyph glyph-name="uni2005" unicode="&#x2005;" horiz-adv-x="250" 
 />
    <glyph glyph-name="uni2006" unicode="&#x2006;" horiz-adv-x="166" 
 />
    <glyph glyph-name="uni2007" unicode="&#x2007;" horiz-adv-x="590" 
 />
    <glyph glyph-name="uni2008" unicode="&#x2008;" horiz-adv-x="220" 
 />
    <glyph glyph-name="uni2009" unicode="&#x2009;" horiz-adv-x="200" 
 />
    <glyph glyph-name="uni200A" unicode="&#x200a;" horiz-adv-x="62" 
 />
    <glyph glyph-name="uni200B" unicode="&#x200b;" 
 />
    <glyph glyph-name="period" unicode="." horiz-adv-x="220" 
d="M110 -7q-26 0 -43 17t-17 42q0 26 17 42.5t43 16.5t42.5 -16.5t16.5 -42.5q0 -25 -17 -42t-42 -17z" />
    <glyph glyph-name="colon" unicode=":" horiz-adv-x="220" 
d="M110 -7q-26 0 -43 17t-17 42q0 26 17 42.5t43 16.5t42.5 -16.5t16.5 -42.5q0 -25 -17 -42t-42 -17zM110 380q-26 0 -43 17t-17 42q0 26 17 42.5t43 16.5t42.5 -16.5t16.5 -42.5q0 -25 -17 -42t-42 -17z" />
    <glyph glyph-name="comma" unicode="," horiz-adv-x="220" 
d="M37 -128v43q33 10 52 31.5t24 46.5h-2q-27 0 -43.5 16.5t-16.5 41.5q0 28 16.5 44t45.5 16q28 0 46 -21t18 -62q0 -55 -34 -97.5t-106 -58.5z" />
    <glyph glyph-name="semicolon" unicode=";" horiz-adv-x="220" 
d="M37 -128v43q33 10 52 31.5t24 46.5h-2q-27 0 -43.5 16.5t-16.5 41.5q0 28 16.5 44t45.5 16q28 0 46 -21t18 -62q0 -55 -34 -97.5t-106 -58.5zM110 380q-26 0 -43 17t-17 42q0 26 17 42.5t43 16.5t42.5 -16.5t16.5 -42.5q0 -25 -17 -42t-42 -17z" />
    <glyph glyph-name="question" unicode="?" horiz-adv-x="454" 
d="M95 480h-89q5 94 64.5 150t159.5 56q62 0 109 -21.5t73.5 -60t26.5 -90.5q0 -53 -21.5 -91t-66.5 -73l-60 -47q-31 -25 -41 -46.5t-10 -54.5v-21h-83v29q0 45 16.5 75.5t57.5 63.5l59 48q29 24 42.5 51t13.5 64q0 46 -32 75.5t-86 29.5q-58 0 -93 -35t-40 -102zM199 -10
q-26 0 -43 17t-17 42t17 42t43 17q25 0 42 -17t17 -42t-17 -42t-42 -17z" />
    <glyph glyph-name="exclam" unicode="!" horiz-adv-x="231" 
d="M83 181l-15 488h96l-14 -488h-67zM116 -10q-26 0 -43 17t-17 42t17 42t43 17t42.5 -17t16.5 -42t-17 -42t-42 -17z" />
    <glyph glyph-name="asterisk" unicode="*" horiz-adv-x="361" 
d="M145 698h70q-2 -30 -6.5 -69t-11.5 -76l70.5 33.5l62.5 28.5l22 -67q-29 -8 -67.5 -15.5t-75.5 -13.5l53 -55l46 -51l-57 -41q-16 25 -35 59t-36 68q-17 -34 -36 -68l-34 -59l-58 41q19 23 45.5 51l53.5 55q-37 6 -75 13.5t-67 15.5l21 67l62.5 -28.5l70.5 -33.5
q-6 37 -11 76t-7 69z" />
    <glyph glyph-name="underscore" unicode="_" horiz-adv-x="500" 
d="M0 -125v40h500v-40h-500z" />
    <glyph glyph-name="ampersand" unicode="&#x26;" horiz-adv-x="705" 
d="M521 331h84q-2 -147 -80 -238q19 -14 35 -18.5t31 -4.5q16 0 28.5 2t20.5 5l11 -67q-25 -13 -68 -13q-28 0 -54.5 10.5t-58.5 36.5q-38 -26 -85 -40t-103 -14q-102 0 -162.5 51.5t-60.5 138.5q0 65 35.5 110.5t98.5 73.5q-35 44 -52.5 81t-17.5 76q0 65 47 107t121 42
q47 0 84.5 -18.5t58.5 -51t21 -73.5q0 -57 -37 -99t-118 -75l130 -161q22 -28 41 -48q23 34 35.5 80.5t14.5 106.5zM206 526q0 -34 13.5 -61.5t42.5 -64.5q62 28 86 57t24 69q0 38 -22.5 60.5t-60.5 22.5q-37 0 -60 -22.5t-23 -60.5zM155 185q0 -53 39 -90t104 -37
q72 0 122 34l-45 52l-143 172q-36 -22 -56.5 -54t-20.5 -77z" />
    <glyph glyph-name="ellipsis" unicode="&#x2026;" horiz-adv-x="1000" 
d="M167 -7q-26 0 -43 17t-17 42q0 26 17 42.5t43 16.5t42.5 -16.5t16.5 -42.5q0 -25 -17 -42t-42 -17zM500 -7q-26 0 -43 17t-17 42q0 26 17 42.5t43 16.5t42.5 -16.5t16.5 -42.5q0 -25 -17 -42t-42 -17zM833 -7q-26 0 -43 17t-17 42q0 26 17 42.5t43 16.5t42.5 -16.5
t16.5 -42.5q0 -25 -17 -42t-42 -17z" />
    <glyph glyph-name="quotesingle" unicode="'" horiz-adv-x="270" 
d="M159 466h-47q-10 52 -14.5 93t-4.5 86v55h85v-55q0 -45 -4 -86t-15 -93z" />
    <glyph glyph-name="quotedbl" unicode="&#x22;" horiz-adv-x="425" 
d="M159 466h-47q-10 52 -14.5 93t-4.5 86v55h85v-55q0 -45 -4 -86t-15 -93zM313 466h-47q-10 52 -14.5 93t-4.5 86v55h85v-55q0 -45 -4 -86t-15 -93z" />
    <glyph glyph-name="quoteleft" unicode="&#x2018;" horiz-adv-x="158" 
d="M137 709v-43q-49 -15 -59 -62q25 0 40 -14.5t15 -37.5q0 -26 -15.5 -40.5t-41.5 -14.5t-42 19.5t-16 57.5q0 51 31 87.5t88 47.5z" />
    <glyph glyph-name="quoteright" unicode="&#x2019;" horiz-adv-x="158" 
d="M21 498v43q49 15 59 62q-25 0 -40 14.5t-15 37.5q0 25 15.5 40t41.5 15t42 -20t16 -57q0 -51 -31 -87.5t-88 -47.5z" />
    <glyph glyph-name="quotesinglbase" unicode="&#x201a;" horiz-adv-x="158" 
d="M21 -112v43q49 15 59 62q-25 0 -40 14.5t-15 37.5q0 25 15.5 40t41.5 15t42 -20t16 -57q0 -51 -31 -87.5t-88 -47.5z" />
    <glyph glyph-name="quotedblleft" unicode="&#x201c;" horiz-adv-x="310" 
d="M137 709v-43q-49 -15 -59 -62q25 0 40 -14.5t15 -37.5q0 -26 -15.5 -40.5t-41.5 -14.5t-42 19.5t-16 57.5q0 51 31 87.5t88 47.5zM289 709v-43q-49 -15 -59 -62q25 0 40 -14.5t15 -37.5q0 -26 -15.5 -40.5t-41.5 -14.5t-42 19.5t-16 57.5q0 51 31 87.5t88 47.5z" />
    <glyph glyph-name="quotedblright" unicode="&#x201d;" horiz-adv-x="310" 
d="M21 498v43q49 15 59 62q-25 0 -40 14.5t-15 37.5q0 25 15.5 40t41.5 15t42 -20t16 -57q0 -51 -31 -87.5t-88 -47.5zM173 498v43q49 15 59 62q-25 0 -40 14.5t-15 37.5q0 25 15.5 40t41.5 15t42 -20t16 -57q0 -51 -31 -87.5t-88 -47.5z" />
    <glyph glyph-name="quotedblbase" unicode="&#x201e;" horiz-adv-x="310" 
d="M21 -112v43q49 15 59 62q-25 0 -40 14.5t-15 37.5q0 25 15.5 40t41.5 15t42 -20t16 -57q0 -51 -31 -87.5t-88 -47.5zM173 -112v43q49 15 59 62q-25 0 -40 14.5t-15 37.5q0 25 15.5 40t41.5 15t42 -20t16 -57q0 -51 -31 -87.5t-88 -47.5z" />
    <glyph glyph-name="hyphen" unicode="-" horiz-adv-x="383" 
d="M45 205v73h293v-73h-293z" />
    <glyph glyph-name="uni2010" unicode="&#x2010;" horiz-adv-x="383" 
d="M45 205v73h293v-73h-293z" />
    <glyph glyph-name="uni2011" unicode="&#x2011;" horiz-adv-x="383" 
d="M45 205v73h293v-73h-293z" />
    <glyph glyph-name="endash" unicode="&#x2013;" horiz-adv-x="500" 
d="M0 205v73h500v-73h-500z" />
    <glyph glyph-name="emdash" unicode="&#x2014;" horiz-adv-x="1000" 
d="M0 205v73h1000v-73h-1000z" />
    <glyph glyph-name="parenleft" unicode="(" horiz-adv-x="297" 
d="M276 -100h-70q-73 94 -107 197t-34 213q0 111 34 214.5t107 195.5h70q-64 -92 -93.5 -199.5t-29.5 -210.5t29.5 -209t93.5 -201z" />
    <glyph glyph-name="parenright" unicode=")" horiz-adv-x="297" 
d="M91 -100h-70q64 92 93 199.5t29 210.5t-29 209t-93 201h70q72 -94 106.5 -197t34.5 -213q0 -111 -34.5 -214.5t-106.5 -195.5z" />
    <glyph glyph-name="slash" unicode="/" horiz-adv-x="326" 
d="M5 -105l235 790h82l-235 -790h-82z" />
    <glyph glyph-name="backslash" unicode="\" horiz-adv-x="326" 
d="M86 685l235 -790h-82l-234 790h81z" />
    <glyph glyph-name="bracketleft" unicode="[" horiz-adv-x="290" 
d="M74 -100v820h196v-64h-111v-692h111v-64h-196z" />
    <glyph glyph-name="bracketright" unicode="]" horiz-adv-x="290" 
d="M216 720v-820h-196v64h111v692h-111v64h196z" />
    <glyph glyph-name="braceleft" unicode="{" horiz-adv-x="340" 
d="M35 278v64h26q37 0 51.5 17t14.5 51q0 50 -7.5 91t-7.5 88q0 62 37 96.5t126 34.5h47v-64h-41q-48 0 -67.5 -18.5t-19.5 -58.5q0 -35 3.5 -62l7 -56t3.5 -68q0 -43 -22 -61t-48 -22q26 -4 48 -22t22 -61q0 -39 -3.5 -68l-7 -56t-3.5 -62q0 -40 19.5 -58.5t67.5 -18.5h41
v-64h-47q-89 0 -126 34.5t-37 96.5q0 47 7.5 88t7.5 91q0 34 -14.5 51t-51.5 17h-26z" />
    <glyph glyph-name="braceright" unicode="}" horiz-adv-x="340" 
d="M18 -100v64h41q48 0 67.5 18.5t19.5 58.5q0 35 -3.5 62l-7 56t-3.5 68q0 43 21.5 61t48.5 22q-27 4 -48.5 22t-21.5 61q0 39 3.5 68l7 56t3.5 62q0 40 -19.5 58.5t-67.5 18.5h-41v64h47q89 0 126 -34.5t37 -96.5q0 -47 -7.5 -88t-7.5 -91q0 -34 14.5 -51t51.5 -17h26v-64
h-26q-37 0 -51.5 -17t-14.5 -51q0 -50 7.5 -91t7.5 -88q0 -62 -37 -96.5t-126 -34.5h-47z" />
    <glyph glyph-name="bullet" unicode="&#x2022;" horiz-adv-x="314" 
d="M157 140q-45 0 -73.5 30t-28.5 72q0 44 28.5 72.5t73.5 28.5q44 0 72.5 -28.5t28.5 -72.5q0 -42 -29 -72t-72 -30z" />
    <glyph glyph-name="guilsinglleft" unicode="&#x2039;" horiz-adv-x="339" 
d="M192 52l-143 196l143 196h88l-139 -195l141 -197h-90z" />
    <glyph glyph-name="guilsinglright" unicode="&#x203a;" horiz-adv-x="339" 
d="M147 444l143 -196l-143 -196h-88l139 194l-141 198h90z" />
    <glyph glyph-name="guillemotleft" unicode="&#xab;" horiz-adv-x="599" 
d="M192 52l-143 196l143 196h88l-139 -195l141 -197h-90zM452 52l-143 196l143 196h88l-139 -195l141 -197h-90z" />
    <glyph glyph-name="guillemotright" unicode="&#xbb;" horiz-adv-x="599" 
d="M147 444l143 -196l-143 -196h-88l139 194l-141 198h90zM407 444l143 -196l-143 -196h-88l139 194l-141 198h90z" />
    <glyph glyph-name="at" unicode="@" horiz-adv-x="943" 
d="M474 -170q-132 0 -228 53.5t-148.5 150t-52.5 224.5q0 92 30 170.5t86.5 136.5t136 90t177.5 32q104 0 184.5 -30t136 -84t84 -125t28.5 -152q0 -121 -52 -193t-150 -72q-46 0 -76 21t-38 67q-25 -39 -66.5 -59.5t-88.5 -20.5q-58 0 -99.5 27.5t-64 75t-22.5 107.5
q0 61 23.5 109t66 75t99.5 27q48 0 85.5 -20.5t60.5 -55.5l4 69h76v-299q0 -33 13 -48.5t42 -15.5q30 0 57.5 22t45.5 67.5t18 116.5q0 66 -23.5 126t-69.5 106.5t-114.5 73t-159.5 26.5q-83 0 -150 -28t-115 -78.5t-74 -118t-26 -145.5q0 -112 48 -194t131 -127.5
t186 -45.5q64 0 115.5 11.5t110.5 37.5l18 -57q-60 -28 -117.5 -40.5t-127.5 -12.5zM455 102q37 0 66.5 19t46.5 51t17 70v15q0 37 -16 69t-45 51.5t-67 19.5q-56 0 -88.5 -42.5t-32.5 -105.5q0 -62 32 -104.5t87 -42.5z" />
    <glyph glyph-name="periodcentered" unicode="&#xb7;" horiz-adv-x="220" 
d="M110 182q-26 0 -43 17t-17 42q0 26 17 42.5t43 16.5t42.5 -16.5t16.5 -42.5q0 -25 -17 -42t-42 -17z" />
    <glyph glyph-name="questiondown" unicode="&#xbf;" horiz-adv-x="454" 
d="M256 390q-26 0 -43 17t-17 42t17 42t43 17t42.5 -17t16.5 -42t-17 -42t-42 -17zM359 18h89q-5 -94 -64.5 -150t-159.5 -56q-62 0 -109 21.5t-73.5 60t-26.5 90.5q0 53 21.5 91t66.5 73l60 47q31 25 41 46.5t10 54.5v21h83v-29q0 -45 -16.5 -75.5t-57.5 -63.5l-59 -48
q-29 -24 -42.5 -51t-13.5 -64q0 -46 32 -75.5t86 -29.5q58 0 93 35t40 102z" />
    <glyph glyph-name="exclamdown" unicode="&#xa1;" horiz-adv-x="231" 
d="M116 390q-26 0 -43 17t-17 42t17 42t43 17t42.5 -17t16.5 -42t-17 -42t-42 -17zM149 316l15 -488h-96l14 488h67z" />
    <glyph glyph-name="hyphen.case" horiz-adv-x="383" 
d="M45 300v73h293v-73h-293z" />
    <glyph glyph-name="uni2010.case" horiz-adv-x="383" 
d="M45 300v73h293v-73h-293z" />
    <glyph glyph-name="uni2011.case" horiz-adv-x="383" 
d="M45 300v73h293v-73h-293z" />
    <glyph glyph-name="endash.case" horiz-adv-x="500" 
d="M0 300v73h500v-73h-500z" />
    <glyph glyph-name="emdash.case" horiz-adv-x="1000" 
d="M0 300v73h1000v-73h-1000z" />
    <glyph glyph-name="parenleft.case" horiz-adv-x="297" 
d="M276 -75h-70q-73 94 -107 197t-34 213q0 111 34 214.5t107 195.5h70q-64 -92 -93.5 -199.5t-29.5 -210.5t29.5 -209t93.5 -201z" />
    <glyph glyph-name="parenright.case" horiz-adv-x="297" 
d="M91 -75h-70q64 92 93 199.5t29 210.5t-29 209t-93 201h70q72 -94 106.5 -197t34.5 -213q0 -111 -34.5 -214.5t-106.5 -195.5z" />
    <glyph glyph-name="slash.case" horiz-adv-x="326" 
d="M5 -61l235 790h82l-235 -790h-82z" />
    <glyph glyph-name="backslash.case" horiz-adv-x="326" 
d="M86 729l235 -790h-82l-234 790h81z" />
    <glyph glyph-name="bracketleft.case" horiz-adv-x="290" 
d="M74 -75v820h196v-64h-111v-692h111v-64h-196z" />
    <glyph glyph-name="bracketright.case" horiz-adv-x="290" 
d="M216 745v-820h-196v64h111v692h-111v64h196z" />
    <glyph glyph-name="braceleft.case" horiz-adv-x="340" 
d="M35 303v64h26q37 0 51.5 17t14.5 51q0 50 -7.5 91t-7.5 88q0 62 37 96.5t126 34.5h47v-64h-41q-48 0 -67.5 -18.5t-19.5 -58.5q0 -35 3.5 -62l7 -56t3.5 -68q0 -43 -22 -61t-48 -22q26 -4 48 -22t22 -61q0 -39 -3.5 -68l-7 -56t-3.5 -62q0 -40 19.5 -58.5t67.5 -18.5h41
v-64h-47q-89 0 -126 34.5t-37 96.5q0 47 7.5 88t7.5 91q0 34 -14.5 51t-51.5 17h-26z" />
    <glyph glyph-name="braceright.case" horiz-adv-x="340" 
d="M18 -75v64h41q48 0 67.5 18.5t19.5 58.5q0 35 -3.5 62l-7 56t-3.5 68q0 43 21.5 61t48.5 22q-27 4 -48.5 22t-21.5 61q0 39 3.5 68l7 56t3.5 62q0 40 -19.5 58.5t-67.5 18.5h-41v64h47q89 0 126 -34.5t37 -96.5q0 -47 -7.5 -88t-7.5 -91q0 -34 14.5 -51t51.5 -17h26v-64
h-26q-37 0 -51.5 -17t-14.5 -51q0 -50 7.5 -91t7.5 -88q0 -62 -37 -96.5t-126 -34.5h-47z" />
    <glyph glyph-name="bullet.case" horiz-adv-x="314" 
d="M157 233q-45 0 -73.5 30t-28.5 72q0 44 28.5 72.5t73.5 28.5q44 0 72.5 -28.5t28.5 -72.5q0 -42 -29 -72t-72 -30z" />
    <glyph glyph-name="guilsinglleft.case" horiz-adv-x="339" 
d="M192 139l-143 196l143 196h88l-139 -195l141 -197h-90z" />
    <glyph glyph-name="guilsinglright.case" horiz-adv-x="339" 
d="M147 531l143 -196l-143 -196h-88l139 194l-141 198h90z" />
    <glyph glyph-name="guillemotleft.case" horiz-adv-x="619" 
d="M211 139l-143 196l143 196h88l-139 -195l141 -197h-90zM472 139l-143 196l143 196h88l-139 -195l141 -197h-90z" />
    <glyph glyph-name="guillemotright.case" horiz-adv-x="599" 
d="M147 531l143 -196l-143 -196h-88l139 194l-141 198h90zM407 531l143 -196l-143 -196h-88l139 194l-141 198h90z" />
    <glyph glyph-name="at.case" horiz-adv-x="943" 
d="M474 -112q-132 0 -228 53.5t-148.5 150t-52.5 224.5q0 92 30 170.5t86.5 136.5t136 90t177.5 32q104 0 184.5 -30t136 -84t84 -125t28.5 -152q0 -121 -52 -193t-150 -72q-46 0 -76 21t-38 67q-25 -39 -66.5 -59.5t-88.5 -20.5q-58 0 -99.5 27.5t-64 75t-22.5 107.5
q0 61 23.5 109t66 75t99.5 27q48 0 85.5 -20.5t60.5 -55.5l4 69h76v-299q0 -33 13 -48.5t42 -15.5q30 0 57.5 22t45.5 67.5t18 116.5q0 66 -23.5 126t-69.5 106.5t-114.5 73t-159.5 26.5q-83 0 -150 -28t-115 -78.5t-74 -118t-26 -145.5q0 -112 48 -194t131 -127.5
t186 -45.5q64 0 115.5 11.5t110.5 37.5l18 -57q-60 -28 -117.5 -40.5t-127.5 -12.5zM455 160q37 0 66.5 19t46.5 51t17 70v15q0 37 -16 69t-45 51.5t-67 19.5q-56 0 -88.5 -42.5t-32.5 -105.5q0 -62 32 -104.5t87 -42.5z" />
    <glyph glyph-name="periodcentered.case" horiz-adv-x="270" 
d="M135 276q-26 0 -43 17t-17 42q0 26 17 42.5t43 16.5t42.5 -16.5t16.5 -42.5q0 -25 -17 -42t-42 -17z" />
    <glyph glyph-name="questiondown.case" horiz-adv-x="454" 
d="M256 562q-26 0 -43 17t-17 42t17 42t43 17t42.5 -17t16.5 -42t-17 -42t-42 -17zM359 190h89q-5 -94 -64.5 -150t-159.5 -56q-62 0 -109 21.5t-73.5 60t-26.5 90.5q0 53 21.5 91t66.5 73l60 47q31 25 41 46.5t10 54.5v21h83v-29q0 -45 -16.5 -75.5t-57.5 -63.5l-59 -48
q-29 -24 -42.5 -51t-13.5 -64q0 -46 32 -75.5t86 -29.5q58 0 93 35t40 102z" />
    <glyph glyph-name="exclamdown.case" horiz-adv-x="231" 
d="M116 562q-26 0 -43 17t-17 42t17 42t43 17t42.5 -17t16.5 -42t-17 -42t-42 -17zM149 488l15 -488h-96l14 488h67z" />
    <glyph glyph-name="uni00AD" unicode="&#xad;" horiz-adv-x="383" 
d="M45 205v73h293v-73h-293z" />
    <glyph glyph-name="figuredash" unicode="&#x2012;" horiz-adv-x="590" 
d="M45 205v73h500v-73h-500z" />
    <glyph glyph-name="afii00208" unicode="&#x2015;" horiz-adv-x="1000" 
d="M0 205v73h1000v-73h-1000z" />
    <glyph glyph-name="section" unicode="&#xa7;" horiz-adv-x="509" 
d="M423 351v-70l-210 63q-91 27 -132.5 69.5t-41.5 110.5q0 73 53.5 117.5t153.5 44.5q98 0 153 -42t62 -119h-87q-6 39 -26 61.5t-47.5 31.5t-55.5 9q-61 0 -91 -26.5t-30 -70.5t25 -73t81 -46zM85 238v70l209 -63q92 -28 133.5 -68.5t41.5 -111.5q0 -73 -53.5 -117.5
t-153.5 -44.5q-98 0 -153 42t-63 119h88q6 -40 26 -62t47.5 -31t55.5 -9q61 0 91 26.5t30 70.5q0 45 -25.5 73t-80.5 46z" />
    <glyph glyph-name="paragraph" unicode="&#xb6;" horiz-adv-x="577" 
d="M281 -105v347h-19q-112 0 -168 59.5t-56 154.5q0 98 56 156t168 58h226v-775h-66v714h-75v-714h-66z" />
    <glyph glyph-name="bar" unicode="|" horiz-adv-x="228" 
d="M75 -100v820h78v-820h-78z" />
    <glyph glyph-name="dagger" unicode="&#x2020;" horiz-adv-x="404" 
d="M162 -105l5 538l-139 -4v74l139 -4l-5 171h78l-4 -171l140 4v-74l-140 4l4 -538h-78z" />
    <glyph glyph-name="daggerdbl" unicode="&#x2021;" horiz-adv-x="404" 
d="M28 63v73l139 -4v301l-139 -4v74l139 -4l-5 171h78l-4 -171l140 4v-74l-140 4v-301l140 4v-73l-140 3l4 -171h-78l5 171z" />
    <glyph glyph-name="degree" unicode="&#xb0;" horiz-adv-x="313" 
d="M156 442q-56 0 -94.5 36t-38.5 93t38.5 93t94.5 36q57 0 95.5 -36t38.5 -93t-38.5 -93t-95.5 -36zM156 492q33 0 54 22t21 57t-21 57t-54 22q-32 0 -53 -22t-21 -57t21 -57t53 -22z" />
    <glyph glyph-name="trademark" unicode="&#x2122;" horiz-adv-x="897" 
d="M148 250v362h-139v58h349v-58h-138v-362h-72zM387 250l49 420h81l107 -294l107 294h81l49 -420h-71l-35 320l-103 -277h-57l-103 277l-35 -320h-70z" />
    <glyph glyph-name="ordfeminine" unicode="&#xaa;" horiz-adv-x="426" 
d="M157 278q-58 0 -90 27t-32 74q0 39 21 65t57 41.5t81 22t92 7.5v8q0 43 -21 69.5t-58 26.5q-32 0 -54.5 -18t-29.5 -49h-73q11 56 52.5 87t108.5 31q152 0 152 -162v-223h-66l-6 62q-20 -32 -56 -50.5t-78 -18.5zM179 332q29 0 53.5 14t39 36.5t14.5 49.5v39
q-81 -2 -127 -22.5t-46 -61.5q0 -24 18.5 -39.5t47.5 -15.5z" />
    <glyph glyph-name="ordmasculine" unicode="&#xba;" horiz-adv-x="430" 
d="M215 278q-57 0 -99 26t-65.5 70t-23.5 100t23.5 100t65.5 70t99 26t99 -26t65.5 -70t23.5 -100t-23.5 -100t-65.5 -70t-99 -26zM215 333q49 0 78.5 38.5t29.5 102.5t-29.5 103t-78.5 39t-78.5 -39t-29.5 -103t29.5 -102.5t78.5 -38.5z" />
    <glyph glyph-name="copyright" unicode="&#xa9;" horiz-adv-x="833" 
d="M417 0q-95 0 -169.5 43t-117 119t-42.5 173t42.5 173t117 119t169.5 43t169.5 -43t117 -119t42.5 -173t-42.5 -173t-117 -119t-169.5 -43zM417 53q81 0 141.5 36t94 99.5t33.5 146.5t-33.5 147t-94 99.5t-141.5 35.5t-141.5 -35.5t-94 -99.5t-33.5 -147t33.5 -146.5
t94 -99.5t141.5 -36zM425 142q-49 0 -90 22.5t-65 66t-24 104.5q0 60 24.5 103.5t65 67t90.5 23.5q57 0 101.5 -33t58.5 -102h-74q-10 44 -33.5 63t-53.5 19q-25 0 -48.5 -14.5t-38.5 -46t-15 -80.5t15 -80t38.5 -45.5t48.5 -14.5q31 0 54.5 20t34.5 66h73
q-14 -71 -60.5 -105t-101.5 -34z" />
    <glyph glyph-name="registered" unicode="&#xae;" horiz-adv-x="554" 
d="M277 188q-71 0 -125.5 31.5t-85 87t-30.5 127.5t30.5 127.5t85 87t125.5 31.5t125.5 -31.5t84.5 -87t30 -127.5t-30 -127.5t-84.5 -87t-125.5 -31.5zM277 234q88 0 138 54t50 146q0 93 -50 147t-138 54q-89 0 -138.5 -54t-49.5 -147q0 -92 49.5 -146t138.5 -54zM186 314
v247h97q47 0 70 -19.5t23 -52.5q0 -26 -16 -42t-45 -22q55 -23 75 -111h-49q-11 52 -36 75t-63 23h-9v-98h-47zM276 526h-43v-78h43q29 0 41 11t12 28t-12 28t-41 11z" />
    <glyph glyph-name="zero" unicode="0" horiz-adv-x="554" 
d="M277 -16q-83 0 -137 42.5t-80.5 120t-26.5 180.5t26.5 180.5t80.5 120t137 42.5t137 -42.5t80.5 -120t26.5 -180.5t-26.5 -180.5t-80.5 -120t-137 -42.5zM277 55q77 0 112.5 70.5t35.5 201.5t-35.5 201.5t-112.5 70.5t-112.5 -70.5t-35.5 -201.5t35.5 -201.5t112.5 -70.5
z" />
    <glyph glyph-name="one" unicode="1" horiz-adv-x="389" 
d="M23 479v76q51 11 106 36.5t95 62.5h71v-654h-92v540q-42 -21 -89.5 -37.5t-90.5 -23.5z" />
    <glyph glyph-name="two" unicode="2" horiz-adv-x="536" 
d="M43 0v19q0 79 35.5 135t109.5 105l114 77q52 35 73 68.5t21 80.5q0 53 -33 84t-91 31q-130 0 -142 -152h-91q6 104 70 163t168 59q64 0 112 -23t75 -64t27 -95q0 -63 -30 -110t-96 -92l-117 -80q-53 -36 -76 -66t-25 -66h354v-74h-458z" />
    <glyph glyph-name="three" unicode="3" horiz-adv-x="539" 
d="M275 -16q-109 0 -175 55.5t-74 153.5h91q7 -73 51 -106.5t108 -33.5t102 31.5t38 93.5q0 38 -18 69.5t-59 49.5t-111 18h-18v64h18q68 0 104.5 16.5t50 41.5t13.5 51q0 56 -34 84.5t-89 28.5q-59 0 -94 -30.5t-42 -85.5h-90q7 85 69 135t160 50q95 0 154.5 -47t59.5 -129
q0 -45 -25.5 -86t-91.5 -62q77 -22 106.5 -68t29.5 -98q0 -60 -29 -104t-81.5 -68t-123.5 -24z" />
    <glyph glyph-name="four" unicode="4" horiz-adv-x="551" 
d="M23 141v69l324 444h83v-440h101v-73h-101v-141h-87v141h-320zM108 214h235v325z" />
    <glyph glyph-name="five" unicode="5" horiz-adv-x="527" 
d="M58 279l26 375h385v-74h-309l-15 -203q55 57 141 57q65 0 113 -28t74.5 -78t26.5 -115q0 -107 -65.5 -168t-175.5 -61q-93 0 -155.5 48t-71.5 136h91q10 -58 47.5 -86t93.5 -28q64 0 102 38.5t38 114.5q0 77 -38 118.5t-97 41.5q-46 0 -84 -22.5t-55 -65.5h-72z" />
    <glyph glyph-name="six" unicode="6" horiz-adv-x="537" 
d="M277 -16q-119 0 -181.5 84.5t-62.5 249.5q0 104 25.5 183.5t81 124t144.5 44.5q82 0 139.5 -44.5t70.5 -127.5h-96q-10 53 -42.5 79t-77.5 26q-74 0 -112 -65t-42 -205q27 45 74.5 67.5t96.5 22.5q64 0 112 -26.5t74.5 -75.5t26.5 -115q0 -68 -29 -118t-81 -77t-121 -27z
M274 52q65 0 103.5 38.5t38.5 112.5q0 76 -37 114.5t-102 38.5t-105 -41t-40 -109q0 -74 40 -114t102 -40z" />
    <glyph glyph-name="seven" unicode="7" horiz-adv-x="483" 
d="M15 580v74h450v-74q-112 -148 -175.5 -286.5t-82.5 -293.5h-95q17 110 50.5 205t86.5 186t130 189h-364z" />
    <glyph glyph-name="eight" unicode="8" horiz-adv-x="556" 
d="M278 -16q-74 0 -129.5 23.5t-87 67t-31.5 104.5q0 60 36.5 103.5t99.5 64.5q-53 19 -83 57.5t-30 92.5q0 53 28 91.5t78.5 60t118.5 21.5t118.5 -21.5t78.5 -60t28 -91.5q0 -54 -30 -92.5t-83 -57.5q63 -21 99.5 -64.5t36.5 -103.5q0 -61 -31.5 -104.5t-87 -67
t-129.5 -23.5zM278 376q59 0 95.5 29.5t36.5 86.5t-36.5 86.5t-95.5 29.5t-95.5 -29.5t-36.5 -86.5t36.5 -86.5t95.5 -29.5zM278 49q65 0 107.5 33t42.5 101q0 64 -42.5 98.5t-107.5 34.5t-107.5 -34.5t-42.5 -98.5q0 -68 42.5 -101t107.5 -33z" />
    <glyph glyph-name="nine" unicode="9" horiz-adv-x="534" 
d="M261 670q71 0 125.5 -34t84.5 -106t30 -186q0 -106 -26.5 -187t-81.5 -127t-142 -46q-81 0 -138 44.5t-70 127.5h96q10 -53 41 -79t77 -26q70 0 109 65t43 203q-25 -44 -71.5 -66t-96.5 -22q-97 0 -155.5 58.5t-58.5 158.5q0 68 29.5 118t82 77t122.5 27zM263 602
q-66 0 -104.5 -38t-38.5 -113q0 -76 37 -114.5t101 -38.5q65 0 105 40.5t40 105.5q0 76 -40 117t-100 41z" />
    <glyph glyph-name="zero.tnum" horiz-adv-x="590" 
d="M295 -16q-83 0 -137 42.5t-80.5 120t-26.5 180.5t26.5 180.5t80.5 120t137 42.5t137 -42.5t80.5 -120t26.5 -180.5t-26.5 -180.5t-80.5 -120t-137 -42.5zM295 55q77 0 112.5 70.5t35.5 201.5t-35.5 201.5t-112.5 70.5t-112.5 -70.5t-35.5 -201.5t35.5 -201.5t112.5 -70.5
z" />
    <glyph glyph-name="one.tnum" horiz-adv-x="590" 
d="M127 479v76q51 11 106 36.5t95 62.5h71v-654h-92v540q-42 -21 -89.5 -37.5t-90.5 -23.5z" />
    <glyph glyph-name="two.tnum" horiz-adv-x="590" 
d="M71 0v19q0 79 35.5 135t109.5 105l114 77q52 35 73 68.5t21 80.5q0 53 -33 84t-91 31q-130 0 -142 -152h-91q6 104 70 163t168 59q64 0 112 -23t75 -64t27 -95q0 -63 -30 -110t-96 -92l-117 -80q-53 -36 -76 -66t-25 -66h354v-74h-458z" />
    <glyph glyph-name="three.tnum" horiz-adv-x="590" 
d="M294 -16q-109 0 -175 55.5t-74 153.5h91q7 -73 51 -106.5t108 -33.5t102 31.5t38 93.5q0 38 -18 69.5t-59 49.5t-111 18h-18v64h18q68 0 104.5 16.5t50 41.5t13.5 51q0 56 -34 84.5t-89 28.5q-59 0 -94 -30.5t-42 -85.5h-90q7 85 69 135t160 50q95 0 154.5 -47t59.5 -129
q0 -45 -25.5 -86t-91.5 -62q77 -22 106.5 -68t29.5 -98q0 -60 -29 -104t-81.5 -68t-123.5 -24z" />
    <glyph glyph-name="four.tnum" horiz-adv-x="590" 
d="M40 141v69l324 444h83v-440h101v-73h-101v-141h-87v141h-320zM125 214h235v325z" />
    <glyph glyph-name="five.tnum" horiz-adv-x="590" 
d="M90 279l26 375h385v-74h-309l-15 -203q55 57 141 57q65 0 113 -28t74.5 -78t26.5 -115q0 -107 -65.5 -168t-175.5 -61q-93 0 -155.5 48t-71.5 136h91q10 -58 47.5 -86t93.5 -28q64 0 102 38.5t38 114.5q0 77 -38 118.5t-97 41.5q-46 0 -84 -22.5t-55 -65.5h-72z" />
    <glyph glyph-name="six.tnum" horiz-adv-x="590" 
d="M306 -16q-119 0 -181.5 84.5t-62.5 249.5q0 104 25.5 183.5t81 124t144.5 44.5q82 0 139.5 -44.5t70.5 -127.5h-96q-10 53 -42.5 79t-77.5 26q-74 0 -112 -65t-42 -205q27 45 74.5 67.5t96.5 22.5q64 0 112 -26.5t74.5 -75.5t26.5 -115q0 -68 -29 -118t-81 -77t-121 -27z
M303 52q65 0 103.5 38.5t38.5 112.5q0 76 -37 114.5t-102 38.5t-105 -41t-40 -109q0 -74 40 -114t102 -40z" />
    <glyph glyph-name="seven.tnum" horiz-adv-x="590" 
d="M72 580v74h450v-74q-112 -148 -175.5 -286.5t-82.5 -293.5h-95q17 110 50.5 205t86.5 186t130 189h-364z" />
    <glyph glyph-name="eight.tnum" horiz-adv-x="590" 
d="M295 -16q-74 0 -129.5 23.5t-87 67t-31.5 104.5q0 60 36.5 103.5t99.5 64.5q-53 19 -83 57.5t-30 92.5q0 53 28 91.5t78.5 60t118.5 21.5t118.5 -21.5t78.5 -60t28 -91.5q0 -54 -30 -92.5t-83 -57.5q63 -21 99.5 -64.5t36.5 -103.5q0 -61 -31.5 -104.5t-87 -67
t-129.5 -23.5zM295 376q59 0 95.5 29.5t36.5 86.5t-36.5 86.5t-95.5 29.5t-95.5 -29.5t-36.5 -86.5t36.5 -86.5t95.5 -29.5zM295 49q65 0 107.5 33t42.5 101q0 64 -42.5 98.5t-107.5 34.5t-107.5 -34.5t-42.5 -98.5q0 -68 42.5 -101t107.5 -33z" />
    <glyph glyph-name="nine.tnum" horiz-adv-x="590" 
d="M287 670q71 0 125.5 -34t84.5 -106t30 -186q0 -106 -26.5 -187t-81.5 -127t-142 -46q-81 0 -138 44.5t-70 127.5h96q10 -53 41 -79t77 -26q70 0 109 65t43 203q-25 -44 -71.5 -66t-96.5 -22q-97 0 -155.5 58.5t-58.5 158.5q0 68 29.5 118t82 77t122.5 27zM289 602
q-66 0 -104.5 -38t-38.5 -113q0 -76 37 -114.5t101 -38.5q65 0 105 40.5t40 105.5q0 76 -40 117t-100 41z" />
    <glyph glyph-name="dollar" unicode="$" horiz-adv-x="590" 
d="M266 -104v101q-101 8 -158.5 58.5t-66.5 133.5h92q11 -62 48 -91t87 -36v236l-43 9q-76 16 -121 58t-45 115q0 84 57 131t150 52v101h55v-101q183 -16 208 -198h-92q-19 117 -118 132v-225l46 -10q90 -20 133.5 -62t43.5 -117q0 -83 -57.5 -132.5t-163.5 -54.5v-100h-55z
M258 385l10 -2v217q-55 -4 -87 -31t-32 -79q0 -42 25.5 -67.5t83.5 -37.5zM334 285l-15 3v-228q66 3 99.5 33.5t33.5 81.5q0 46 -29 72t-89 38z" />
    <glyph glyph-name="cent" unicode="&#xa2;" horiz-adv-x="590" 
d="M279 0v68q-59 6 -107 37.5t-76.5 87t-28.5 133.5q0 75 28.5 130t76.5 87.5t107 38.5v78h55v-77q70 -7 123.5 -50.5t67.5 -127.5h-85q-12 55 -41.5 82t-66.5 33v-388q37 7 67 35.5t44 84.5h83q-16 -85 -70.5 -130.5t-121.5 -52.5v-69h-55zM156 326q0 -92 37.5 -138.5
t87.5 -55.5v388q-50 -9 -87.5 -55.5t-37.5 -138.5z" />
    <glyph glyph-name="sterling" unicode="&#xa3;" horiz-adv-x="590" 
d="M406 288h-167q5 -21 8.5 -43.5t3.5 -46.5q0 -50 -14 -80.5t-35 -46.5h324v-71h-476v65q58 0 83.5 31.5t25.5 95.5q0 26 -4 49.5t-10 46.5h-93v68h75q-6 26 -10.5 55t-4.5 62q0 94 58 145.5t152 51.5q84 0 139 -48t73 -126h-94q-13 52 -43 79.5t-79 27.5
q-50 0 -81.5 -30.5t-31.5 -95.5q0 -34 5 -63.5t12 -57.5h184v-68z" />
    <glyph glyph-name="currency" unicode="&#xa4;" horiz-adv-x="590" 
d="M82 332q0 36 11.5 68.5t31.5 58.5l-72 72l44 44l73 -73q26 19 58.5 29t67.5 10t67 -10.5t58 -28.5l73 72l44 -43l-72 -73q19 -26 30 -58t11 -68t-11 -68.5t-30 -58.5l72 -71l-44 -44l-72 72q-26 -19 -58.5 -29.5t-67.5 -10.5q-36 0 -68.5 10.5t-58.5 29.5l-74 -74l-43 44
l72 73q-20 26 -31 58.5t-11 68.5zM155 332q0 -42 18 -75t50 -52.5t73 -19.5q40 0 71.5 19.5t49.5 52.5t18 75t-18 75t-49.5 52.5t-71.5 19.5q-41 0 -73 -19.5t-50 -52.5t-18 -75z" />
    <glyph glyph-name="yen" unicode="&#xa5;" horiz-adv-x="590" 
d="M250 0v132h-155v56h155v66h-155v57h131l-192 343h94l168 -324l170 324h89l-193 -343h128v-57h-152v-66h152v-56h-152v-132h-88z" />
    <glyph glyph-name="Euro" unicode="&#x20ac;" horiz-adv-x="590" 
d="M336 -16q-103 0 -167.5 69t-83.5 182h-53v58h47q-1 17 -1 35q0 16 1 32h-47v57h53q12 75 45.5 132t85 89t120.5 32q56 0 103 -24.5t79 -69t43 -104.5h-89q-13 60 -49 94t-87 34q-65 0 -105 -48.5t-54 -134.5h231l-9 -57h-227q-1 -15 -1 -32q0 -18 1 -35h216l-9 -58h-201
q13 -85 53.5 -133t104.5 -48q51 0 88 33t50 97h88q-10 -62 -41.5 -107t-79 -69t-105.5 -24z" />
    <glyph glyph-name="uni20BA" unicode="&#x20ba;" horiz-adv-x="590" 
d="M35 279l76 28v77l-76 -28v59l76 28v211h87v-179l171 62v-59l-171 -62v-77l171 62v-59l-171 -62v-211h83q81 0 121.5 55t45.5 168h82q-7 -149 -72 -220.5t-181 -71.5h-166v248l-76 -28v59z" />
    <glyph glyph-name="uni20B9" unicode="&#x20b9;" horiz-adv-x="590" 
d="M94 492h269q-9 47 -49.5 76.5t-121.5 29.5h-98v56h460l-10 -56h-153q26 -21 41 -48t20 -58h98l-10 -57h-88q-10 -69 -69.5 -115t-174.5 -46h-9l294 -274h-101l-298 274v57h98q80 0 121 29t49 75h-268v57z" />
    <glyph glyph-name="asciicircum" unicode="^" horiz-adv-x="590" 
d="M103 335l159 325h65l160 -325h-73l-120 253l-121 -253h-70z" />
    <glyph glyph-name="plus" unicode="+" horiz-adv-x="590" 
d="M83 364h177v182h70v-182h177v-68h-177v-183h-70v183h-177v68z" />
    <glyph glyph-name="minus" unicode="&#x2212;" horiz-adv-x="590" 
d="M83 296v68h424v-68h-424z" />
    <glyph glyph-name="equal" unicode="=" horiz-adv-x="590" 
d="M83 391v68h424v-68h-424zM83 181v68h424v-68h-424z" />
    <glyph glyph-name="divide" unicode="&#xf7;" horiz-adv-x="590" 
d="M295 458q-23 0 -38.5 15t-15.5 38q0 24 15.5 39t38.5 15t38 -15t15 -39q0 -23 -15 -38t-38 -15zM83 296v68h424v-68h-424zM295 95q-23 0 -38.5 15.5t-15.5 38.5t15.5 38t38.5 15t38 -15t15 -38t-15 -38.5t-38 -15.5z" />
    <glyph glyph-name="less" unicode="&#x3c;" horiz-adv-x="590" 
d="M497 115l-423 181v68l423 181v-73l-344 -142l344 -142v-73z" />
    <glyph glyph-name="greater" unicode="&#x3e;" horiz-adv-x="590" 
d="M93 115v73l344 142l-344 142v73l423 -181v-68z" />
    <glyph glyph-name="asciitilde" unicode="~" horiz-adv-x="590" 
d="M281 285q-20 23 -34.5 34t-33.5 11q-21 0 -40.5 -24t-21.5 -82h-71q4 71 37.5 119.5t92.5 48.5q34 0 60 -18t47 -41q19 -21 34 -33t34 -12q22 0 41 23.5t22 81.5h70q-4 -71 -37 -119.5t-92 -48.5q-35 0 -61 18.5t-47 41.5z" />
    <glyph glyph-name="logicalnot" unicode="&#xac;" horiz-adv-x="590" 
d="M437 198v153h-354v68h424v-221h-70z" />
    <glyph glyph-name="multiply" unicode="&#xd7;" horiz-adv-x="590" 
d="M147 136l-46 47l147 147l-147 148l46 47l148 -148l148 148l46 -47l-147 -148l147 -147l-46 -47l-148 148z" />
    <glyph glyph-name="numbersign" unicode="#" horiz-adv-x="590" 
d="M82 0l31 179h-91v69h103l30 174h-102v69h114l28 163h77l-28 -163h155l28 163h77l-28 -163h92v-69h-104l-30 -174h105v-69h-117l-31 -179h-77l31 179h-155l-31 -179h-77zM202 248h155l30 174h-155z" />
    <glyph glyph-name="zero.dnom" horiz-adv-x="365" 
d="M183 -10q-79 0 -117 56t-38 150t38 150t117 56q78 0 116 -56t38 -150t-38 -150t-116 -56zM183 44q41 0 60.5 39t19.5 113t-19.5 113t-60.5 39q-42 0 -61 -39t-19 -113t19 -113t61 -39z" />
    <glyph glyph-name="one.dnom" horiz-adv-x="264" 
d="M18 275v60q33 7 66 21t58 36h56v-392h-74v307q-26 -11 -53 -19.5t-53 -12.5z" />
    <glyph glyph-name="two.dnom" horiz-adv-x="357" 
d="M36 0v12q0 48 22 83t69 66l66 43q30 20 42.5 39t12.5 44q0 29 -18 45.5t-49 16.5q-34 0 -54 -21.5t-23 -62.5h-70q4 65 44.5 101t106.5 36q63 0 100.5 -31t37.5 -81q0 -38 -17.5 -67t-58.5 -55l-69 -45q-28 -18 -40.5 -33t-15.5 -32h205v-58h-291z" />
    <glyph glyph-name="three.dnom" horiz-adv-x="353" 
d="M179 -10q-67 0 -109.5 33t-48.5 95h70q5 -38 28.5 -57t59.5 -19q35 0 55.5 18t20.5 50q0 35 -24.5 54.5t-81.5 19.5h-11v48h11q41 0 61.5 8.5t28 22t7.5 28.5q0 29 -19 44t-49 15q-32 0 -51 -16.5t-23 -45.5h-70q6 54 45 84t102 30q62 0 100 -29t38 -78q0 -29 -16.5 -52
t-53.5 -35q41 -13 60 -39t19 -58q0 -56 -41 -88.5t-108 -32.5z" />
    <glyph glyph-name="four.dnom" horiz-adv-x="353" 
d="M18 81v52l197 259h65v-255h58v-56h-58v-81h-69v81h-193zM84 137h127v165z" />
    <glyph glyph-name="five.dnom" horiz-adv-x="347" 
d="M43 167l16 225h245v-58h-186l-8 -101q35 29 81 29q61 0 97.5 -36.5t36.5 -96.5q0 -65 -41.5 -102t-111.5 -37q-60 0 -99.5 29.5t-45.5 82.5h71q5 -29 25.5 -43.5t49.5 -14.5q35 0 56 21t21 61q0 39 -21 62t-53 23q-51 0 -76 -44h-57z" />
    <glyph glyph-name="six.dnom" horiz-adv-x="355" 
d="M185 -10q-76 0 -116.5 52t-40.5 151q0 92 38 150.5t124 58.5q52 0 88.5 -26.5t44.5 -77.5h-74q-5 26 -22.5 40t-41.5 14q-38 0 -59.5 -34t-24.5 -109q18 23 43.5 35t53.5 12q60 0 96.5 -35.5t36.5 -95.5q0 -61 -40.5 -98t-105.5 -37zM182 41q35 0 56 21t21 60
q0 42 -20 63t-55 21t-57.5 -22t-22.5 -60t22.5 -60.5t55.5 -22.5z" />
    <glyph glyph-name="seven.dnom" horiz-adv-x="309" 
d="M10 334v58h286v-58q-68 -86 -106.5 -165t-48.5 -169h-74q14 95 52 173t107 161h-216z" />
    <glyph glyph-name="eight.dnom" horiz-adv-x="366" 
d="M183 -10q-71 0 -114.5 31.5t-43.5 86.5q0 36 22 62t61 39q-33 12 -51 34.5t-18 53.5q0 48 39 76.5t105 28.5q65 0 104.5 -28.5t39.5 -76.5q0 -31 -18 -53.5t-51 -34.5q39 -13 61 -39t22 -62q0 -55 -43.5 -86.5t-114.5 -31.5zM183 231q31 0 51 16.5t20 46.5t-20 46t-51 16
t-51 -16t-20 -46t20 -46.5t51 -16.5zM183 39q35 0 58.5 19t23.5 53q0 37 -23.5 56t-58.5 19t-58.5 -19t-23.5 -56q0 -34 23.5 -53t58.5 -19z" />
    <glyph glyph-name="nine.dnom" horiz-adv-x="353" 
d="M171 402q67 0 110.5 -47.5t43.5 -149.5q0 -95 -38.5 -155t-121.5 -60q-53 0 -89 27t-44 78h74q5 -27 22 -40.5t41 -13.5q37 0 58.5 34t24.5 106q-17 -22 -42 -33t-54 -11q-61 0 -97.5 35t-36.5 94q0 62 41 99t108 37zM172 352q-34 0 -55.5 -21t-21.5 -61t20.5 -61.5
t54.5 -21.5q35 0 57 22t22 57q0 41 -21.5 63.5t-55.5 22.5z" />
    <glyph glyph-name="zero.numr" horiz-adv-x="365" 
d="M183 258q-79 0 -117 56t-38 150t38 150t117 56q78 0 116 -56t38 -150t-38 -150t-116 -56zM183 312q41 0 60.5 39t19.5 113t-19.5 113t-60.5 39q-42 0 -61 -39t-19 -113t19 -113t61 -39z" />
    <glyph glyph-name="one.numr" horiz-adv-x="264" 
d="M18 543v60q33 7 66 21t58 36h56v-392h-74v307q-26 -11 -53 -19.5t-53 -12.5z" />
    <glyph glyph-name="two.numr" horiz-adv-x="357" 
d="M36 268v12q0 48 22 83t69 66l66 43q30 20 42.5 39t12.5 44q0 29 -18 45.5t-49 16.5q-34 0 -54 -21.5t-23 -62.5h-70q4 65 44.5 101t106.5 36q63 0 100.5 -31t37.5 -81q0 -38 -17.5 -67t-58.5 -55l-69 -45q-28 -18 -40.5 -33t-15.5 -32h205v-58h-291z" />
    <glyph glyph-name="three.numr" horiz-adv-x="353" 
d="M179 258q-67 0 -109.5 33t-48.5 95h70q5 -38 28.5 -57t59.5 -19q35 0 55.5 18t20.5 50q0 35 -24.5 54.5t-81.5 19.5h-11v48h11q41 0 61.5 8.5t28 22t7.5 28.5q0 29 -19 44t-49 15q-32 0 -51 -16.5t-23 -45.5h-70q6 54 45 84t102 30q62 0 100 -29t38 -78q0 -29 -16.5 -52
t-53.5 -35q41 -13 60 -39t19 -58q0 -56 -41 -88.5t-108 -32.5z" />
    <glyph glyph-name="four.numr" horiz-adv-x="353" 
d="M18 345v52l197 259h65v-255h58v-56h-58v-81h-69v81h-193zM84 401h127v165z" />
    <glyph glyph-name="five.numr" horiz-adv-x="347" 
d="M43 431l16 225h245v-58h-186l-8 -101q35 29 81 29q61 0 97.5 -36.5t36.5 -96.5q0 -65 -41.5 -102t-111.5 -37q-60 0 -99.5 29.5t-45.5 82.5h71q5 -29 25.5 -43.5t49.5 -14.5q35 0 56 21t21 61q0 39 -21 62t-53 23q-51 0 -76 -44h-57z" />
    <glyph glyph-name="six.numr" horiz-adv-x="355" 
d="M185 258q-76 0 -116.5 52t-40.5 151q0 92 38 150.5t124 58.5q52 0 88.5 -26.5t44.5 -77.5h-74q-5 26 -22.5 40t-41.5 14q-38 0 -59.5 -34t-24.5 -109q18 23 43.5 35t53.5 12q60 0 96.5 -35.5t36.5 -95.5q0 -61 -40.5 -98t-105.5 -37zM182 309q35 0 56 21t21 60
q0 42 -20 63t-55 21t-57.5 -22t-22.5 -60t22.5 -60.5t55.5 -22.5z" />
    <glyph glyph-name="seven.numr" horiz-adv-x="309" 
d="M10 608v58h286v-58q-68 -86 -106.5 -165t-48.5 -169h-74q14 95 52 173t107 161h-216z" />
    <glyph glyph-name="eight.numr" horiz-adv-x="366" 
d="M183 258q-71 0 -114.5 31.5t-43.5 86.5q0 36 22 62t61 39q-33 12 -51 34.5t-18 53.5q0 48 39 76.5t105 28.5q65 0 104.5 -28.5t39.5 -76.5q0 -31 -18 -53.5t-51 -34.5q39 -13 61 -39t22 -62q0 -55 -43.5 -86.5t-114.5 -31.5zM183 499q31 0 51 16.5t20 46.5t-20 46t-51 16
t-51 -16t-20 -46t20 -46.5t51 -16.5zM183 307q35 0 58.5 19t23.5 53q0 37 -23.5 56t-58.5 19t-58.5 -19t-23.5 -56q0 -34 23.5 -53t58.5 -19z" />
    <glyph glyph-name="nine.numr" horiz-adv-x="353" 
d="M171 670q67 0 110.5 -47.5t43.5 -149.5q0 -95 -38.5 -155t-121.5 -60q-53 0 -89 27t-44 78h74q5 -27 22 -40.5t41 -13.5q37 0 58.5 34t24.5 106q-17 -22 -42 -33t-54 -11q-61 0 -97.5 35t-36.5 94q0 62 41 99t108 37zM172 620q-34 0 -55.5 -21t-21.5 -61t20.5 -61.5
t54.5 -21.5q35 0 57 22t22 57q0 41 -21.5 63.5t-55.5 22.5z" />
    <glyph glyph-name="uni2080" unicode="&#x2080;" horiz-adv-x="365" 
d="M183 -110q-79 0 -117 56t-38 150t38 150t117 56q78 0 116 -56t38 -150t-38 -150t-116 -56zM183 -56q41 0 60.5 39t19.5 113t-19.5 113t-60.5 39q-42 0 -61 -39t-19 -113t19 -113t61 -39z" />
    <glyph glyph-name="uni2081" unicode="&#x2081;" horiz-adv-x="264" 
d="M18 175v60q33 7 66 21t58 36h56v-392h-74v307q-26 -11 -53 -19.5t-53 -12.5z" />
    <glyph glyph-name="uni2082" unicode="&#x2082;" horiz-adv-x="357" 
d="M36 -100v12q0 48 22 83t69 66l66 43q30 20 42.5 39t12.5 44q0 29 -18 45.5t-49 16.5q-34 0 -54 -21.5t-23 -62.5h-70q4 65 44.5 101t106.5 36q63 0 100.5 -31t37.5 -81q0 -38 -17.5 -67t-58.5 -55l-69 -45q-28 -18 -40.5 -33t-15.5 -32h205v-58h-291z" />
    <glyph glyph-name="uni2083" unicode="&#x2083;" horiz-adv-x="353" 
d="M179 -110q-67 0 -109.5 33t-48.5 95h70q5 -38 28.5 -57t59.5 -19q35 0 55.5 18t20.5 50q0 35 -24.5 54.5t-81.5 19.5h-11v48h11q41 0 61.5 8.5t28 22t7.5 28.5q0 29 -19 44t-49 15q-32 0 -51 -16.5t-23 -45.5h-70q6 54 45 84t102 30q62 0 100 -29t38 -78q0 -29 -16.5 -52
t-53.5 -35q41 -13 60 -39t19 -58q0 -56 -41 -88.5t-108 -32.5z" />
    <glyph glyph-name="uni2084" unicode="&#x2084;" horiz-adv-x="353" 
d="M18 -19v52l197 259h65v-255h58v-56h-58v-81h-69v81h-193zM84 37h127v165z" />
    <glyph glyph-name="uni2085" unicode="&#x2085;" horiz-adv-x="347" 
d="M43 66l16 225h245v-58h-186l-8 -101q35 29 81 29q61 0 97.5 -36.5t36.5 -96.5q0 -65 -41.5 -102t-111.5 -37q-60 0 -99.5 29.5t-45.5 82.5h71q5 -29 25.5 -43.5t49.5 -14.5q35 0 56 21t21 61q0 39 -21 62t-53 23q-51 0 -76 -44h-57z" />
    <glyph glyph-name="uni2086" unicode="&#x2086;" horiz-adv-x="355" 
d="M185 -110q-76 0 -116.5 52t-40.5 151q0 92 38 150.5t124 58.5q52 0 88.5 -26.5t44.5 -77.5h-74q-5 26 -22.5 40t-41.5 14q-38 0 -59.5 -34t-24.5 -109q18 23 43.5 35t53.5 12q60 0 96.5 -35.5t36.5 -95.5q0 -61 -40.5 -98t-105.5 -37zM182 -59q35 0 56 21t21 60
q0 42 -20 63t-55 21t-57.5 -22t-22.5 -60t22.5 -60.5t55.5 -22.5z" />
    <glyph glyph-name="uni2087" unicode="&#x2087;" horiz-adv-x="309" 
d="M10 234v58h286v-58q-68 -86 -106.5 -165t-48.5 -169h-74q14 95 52 173t107 161h-216z" />
    <glyph glyph-name="uni2088" unicode="&#x2088;" horiz-adv-x="366" 
d="M183 -110q-71 0 -114.5 31.5t-43.5 86.5q0 36 22 62t61 39q-33 12 -51 34.5t-18 53.5q0 48 39 76.5t105 28.5q65 0 104.5 -28.5t39.5 -76.5q0 -31 -18 -53.5t-51 -34.5q39 -13 61 -39t22 -62q0 -55 -43.5 -86.5t-114.5 -31.5zM183 131q31 0 51 16.5t20 46.5t-20 46
t-51 16t-51 -16t-20 -46t20 -46.5t51 -16.5zM183 -61q35 0 58.5 19t23.5 53q0 37 -23.5 56t-58.5 19t-58.5 -19t-23.5 -56q0 -34 23.5 -53t58.5 -19z" />
    <glyph glyph-name="uni2089" unicode="&#x2089;" horiz-adv-x="353" 
d="M171 302q67 0 110.5 -47.5t43.5 -149.5q0 -95 -38.5 -155t-121.5 -60q-53 0 -89 27t-44 78h74q5 -27 22 -40.5t41 -13.5q37 0 58.5 34t24.5 106q-17 -22 -42 -33t-54 -11q-61 0 -97.5 35t-36.5 94q0 62 41 99t108 37zM172 252q-34 0 -55.5 -21t-21.5 -61t20.5 -61.5
t54.5 -21.5q35 0 57 22t22 57q0 41 -21.5 63.5t-55.5 22.5z" />
    <glyph glyph-name="uni2070" unicode="&#x2070;" horiz-adv-x="365" 
d="M183 368q-79 0 -117 56t-38 150t38 150t117 56q78 0 116 -56t38 -150t-38 -150t-116 -56zM183 422q41 0 60.5 39t19.5 113t-19.5 113t-60.5 39q-42 0 -61 -39t-19 -113t19 -113t61 -39z" />
    <glyph glyph-name="uni00B9" unicode="&#xb9;" horiz-adv-x="264" 
d="M18 653v60q33 7 66 21t58 36h56v-392h-74v307q-26 -11 -53 -19.5t-53 -12.5z" />
    <glyph glyph-name="uni00B2" unicode="&#xb2;" horiz-adv-x="357" 
d="M36 378v12q0 48 22 83t69 66l66 43q30 20 42.5 39t12.5 44q0 29 -18 45.5t-49 16.5q-34 0 -54 -21.5t-23 -62.5h-70q4 65 44.5 101t106.5 36q63 0 100.5 -31t37.5 -81q0 -38 -17.5 -67t-58.5 -55l-69 -45q-28 -18 -40.5 -33t-15.5 -32h205v-58h-291z" />
    <glyph glyph-name="uni00B3" unicode="&#xb3;" horiz-adv-x="353" 
d="M179 368q-67 0 -109.5 33t-48.5 95h70q5 -38 28.5 -57t59.5 -19q35 0 55.5 18t20.5 50q0 35 -24.5 54.5t-81.5 19.5h-11v48h11q41 0 61.5 8.5t28 22t7.5 28.5q0 29 -19 44t-49 15q-32 0 -51 -16.5t-23 -45.5h-70q6 54 45 84t102 30q62 0 100 -29t38 -78q0 -29 -16.5 -52
t-53.5 -35q41 -13 60 -39t19 -58q0 -56 -41 -88.5t-108 -32.5z" />
    <glyph glyph-name="uni2074" unicode="&#x2074;" horiz-adv-x="353" 
d="M18 455v52l197 259h65v-255h58v-56h-58v-81h-69v81h-193zM84 511h127v165z" />
    <glyph glyph-name="uni2075" unicode="&#x2075;" horiz-adv-x="347" 
d="M43 541l16 225h245v-58h-186l-8 -101q35 29 81 29q61 0 97.5 -36.5t36.5 -96.5q0 -65 -41.5 -102t-111.5 -37q-60 0 -99.5 29.5t-45.5 82.5h71q5 -29 25.5 -43.5t49.5 -14.5q35 0 56 21t21 61q0 39 -21 62t-53 23q-51 0 -76 -44h-57z" />
    <glyph glyph-name="uni2076" unicode="&#x2076;" horiz-adv-x="355" 
d="M185 368q-76 0 -116.5 52t-40.5 151q0 92 38 150.5t124 58.5q52 0 88.5 -26.5t44.5 -77.5h-74q-5 26 -22.5 40t-41.5 14q-38 0 -59.5 -34t-24.5 -109q18 23 43.5 35t53.5 12q60 0 96.5 -35.5t36.5 -95.5q0 -61 -40.5 -98t-105.5 -37zM182 419q35 0 56 21t21 60
q0 42 -20 63t-55 21t-57.5 -22t-22.5 -60t22.5 -60.5t55.5 -22.5z" />
    <glyph glyph-name="uni2077" unicode="&#x2077;" horiz-adv-x="309" 
d="M10 718v58h286v-58q-68 -86 -106.5 -165t-48.5 -169h-74q14 95 52 173t107 161h-216z" />
    <glyph glyph-name="uni2078" unicode="&#x2078;" horiz-adv-x="366" 
d="M183 368q-71 0 -114.5 31.5t-43.5 86.5q0 36 22 62t61 39q-33 12 -51 34.5t-18 53.5q0 48 39 76.5t105 28.5q65 0 104.5 -28.5t39.5 -76.5q0 -31 -18 -53.5t-51 -34.5q39 -13 61 -39t22 -62q0 -55 -43.5 -86.5t-114.5 -31.5zM183 609q31 0 51 16.5t20 46.5t-20 46t-51 16
t-51 -16t-20 -46t20 -46.5t51 -16.5zM183 417q35 0 58.5 19t23.5 53q0 37 -23.5 56t-58.5 19t-58.5 -19t-23.5 -56q0 -34 23.5 -53t58.5 -19z" />
    <glyph glyph-name="uni2079" unicode="&#x2079;" horiz-adv-x="353" 
d="M171 780q67 0 110.5 -47.5t43.5 -149.5q0 -95 -38.5 -155t-121.5 -60q-53 0 -89 27t-44 78h74q5 -27 22 -40.5t41 -13.5q37 0 58.5 34t24.5 106q-17 -22 -42 -33t-54 -11q-61 0 -97.5 35t-36.5 94q0 62 41 99t108 37zM172 730q-34 0 -55.5 -21t-21.5 -61t20.5 -61.5
t54.5 -21.5q35 0 57 22t22 57q0 41 -21.5 63.5t-55.5 22.5z" />
    <glyph glyph-name="fraction" unicode="&#x2044;" horiz-adv-x="140" 
d="M-138 0l336 660h80l-336 -660h-80z" />
    <glyph glyph-name="percent" unicode="%" horiz-adv-x="909" 
d="M247 0l336 660h80l-336 -660h-80zM717 -10q-79 0 -117 56t-38 150t38 150t117 56q78 0 116 -56t38 -150t-38 -150t-116 -56zM717 44q41 0 60.5 39t19.5 113t-19.5 113t-60.5 39q-42 0 -61 -39t-19 -113t19 -113t61 -39zM191 258q-79 0 -117 56t-38 150t38 150t117 56
q78 0 116 -56t38 -150t-38 -150t-116 -56zM191 312q41 0 60.5 39t19.5 113t-19.5 113t-60.5 39q-42 0 -61 -39t-19 -113t19 -113t61 -39z" />
    <glyph glyph-name="perthousand" unicode="&#x2030;" horiz-adv-x="1273" 
d="M247 0l336 660h80l-336 -660h-80zM717 -10q-79 0 -117 56t-38 150t38 150t117 56q78 0 116 -56t38 -150t-38 -150t-116 -56zM717 44q41 0 60.5 39t19.5 113t-19.5 113t-60.5 39q-42 0 -61 -39t-19 -113t19 -113t61 -39zM191 258q-79 0 -117 56t-38 150t38 150t117 56
q78 0 116 -56t38 -150t-38 -150t-116 -56zM191 312q41 0 60.5 39t19.5 113t-19.5 113t-60.5 39q-42 0 -61 -39t-19 -113t19 -113t61 -39zM1082 -10q-79 0 -117 56t-38 150t38 150t117 56q78 0 116 -56t38 -150t-38 -150t-116 -56zM1082 44q41 0 60.5 39t19.5 113t-19.5 113
t-60.5 39q-42 0 -61 -39t-19 -113t19 -113t61 -39z" />
    <glyph glyph-name="onehalf" unicode="&#xbd;" horiz-adv-x="817" 
d="M166 0l336 660h80l-336 -660h-80zM496 0v12q0 48 22 83t69 66l66 43q30 20 42.5 39t12.5 44q0 29 -18 45.5t-49 16.5q-34 0 -54 -21.5t-23 -62.5h-70q4 65 44.5 101t106.5 36q63 0 100.5 -31t37.5 -81q0 -38 -17.5 -67t-58.5 -55l-69 -45q-28 -18 -40.5 -33t-15.5 -32
h205v-58h-291zM18 543v60q33 7 66 21t58 36h56v-392h-74v307q-26 -11 -53 -19.5t-53 -12.5z" />
    <glyph glyph-name="onequarter" unicode="&#xbc;" horiz-adv-x="758" 
d="M166 0l336 660h80l-336 -660h-80zM423 81v52l197 259h65v-255h58v-56h-58v-81h-69v81h-193zM489 137h127v165zM18 543v60q33 7 66 21t58 36h56v-392h-74v307q-26 -11 -53 -19.5t-53 -12.5z" />
    <glyph glyph-name="threequarters" unicode="&#xbe;" horiz-adv-x="838" 
d="M246 0l336 660h80l-336 -660h-80zM503 81v52l197 259h65v-255h58v-56h-58v-81h-69v81h-193zM569 137h127v165zM179 258q-67 0 -109.5 33t-48.5 95h70q5 -38 28.5 -57t59.5 -19q35 0 55.5 18t20.5 50q0 35 -24.5 54.5t-81.5 19.5h-11v48h11q41 0 61.5 8.5t28 22t7.5 28.5
q0 29 -19 44t-49 15q-32 0 -51 -16.5t-23 -45.5h-70q6 54 45 84t102 30q62 0 100 -29t38 -78q0 -29 -16.5 -52t-53.5 -35q41 -13 60 -39t19 -58q0 -56 -41 -88.5t-108 -32.5z" />
    <glyph glyph-name="A" unicode="A" horiz-adv-x="638" 
d="M519 0l-55 160h-293l-56 -160h-93l248 670h99l247 -670h-97zM196 232h243l-121 349z" />
    <glyph glyph-name="B" unicode="B" horiz-adv-x="618" 
d="M86 0v670h223q85 0 136.5 -23.5t74 -62t22.5 -83.5q0 -49 -29 -90.5t-99 -60.5q82 -17 121 -60t39 -102q0 -52 -25.5 -94.5t-80 -68t-142.5 -25.5h-240zM298 603h-121v-227h108q65 0 99.5 17t48 44t13.5 56q0 49 -34 79.5t-114 30.5zM286 312h-109v-245h135
q66 0 101.5 18t49 46.5t13.5 59.5q0 35 -17 62.5t-58.5 43t-114.5 15.5z" />
    <glyph glyph-name="C" unicode="C" horiz-adv-x="690" 
d="M359 -16q-97 0 -166.5 44.5t-106.5 124t-37 182.5q0 102 37 181.5t106.5 124.5t166.5 45q118 0 194.5 -65t97.5 -177h-101q-17 80 -67 124.5t-124 44.5q-99 0 -154.5 -75.5t-55.5 -202.5t55.5 -202.5t154.5 -75.5q73 0 123 42t67 121h100q-19 -109 -96 -172.5t-194 -63.5
z" />
    <glyph glyph-name="D" unicode="D" horiz-adv-x="702" 
d="M86 0v670h207q121 0 201 -44t120 -120t40 -171q0 -96 -40 -171.5t-120 -119.5t-200 -44h-208zM293 600h-116v-529h116q134 0 197 72t63 192q0 81 -27 140.5t-84.5 92t-148.5 32.5z" />
    <glyph glyph-name="E" unicode="E" horiz-adv-x="559" 
d="M86 0v670h420v-73h-325v-225h294v-70h-294v-229h329v-73h-424z" />
    <glyph glyph-name="F" unicode="F" horiz-adv-x="552" 
d="M86 0v670h427v-73h-332v-239h287v-70h-287v-288h-95z" />
    <glyph glyph-name="G" unicode="G" horiz-adv-x="718" 
d="M49 335q0 103 38.5 182t109.5 124t170 45q119 0 197 -62t96 -171h-101q-15 79 -65 120t-127 41q-67 0 -116.5 -34.5t-76 -97t-26.5 -147.5q0 -84 26.5 -147t76 -97.5t116.5 -34.5q94 0 148 54.5t62 153.5h-184v71h276v-30q0 -93 -34 -165.5t-101 -114t-167 -41.5t-171 45
t-109 124.5t-38 181.5z" />
    <glyph glyph-name="H" unicode="H" horiz-adv-x="700" 
d="M86 0v670h95v-296h338v296h95v-670h-95v301h-338v-301h-95z" />
    <glyph glyph-name="I" unicode="I" horiz-adv-x="267" 
d="M86 0v670h95v-670h-95z" />
    <glyph glyph-name="J" unicode="J" horiz-adv-x="580" 
d="M266 -16q-105 0 -167.5 64.5t-70.5 181.5h94q12 -173 144 -173q74 0 109.5 47.5t35.5 147.5v418h95v-412q0 -133 -62 -203.5t-178 -70.5z" />
    <glyph glyph-name="K" unicode="K" horiz-adv-x="617" 
d="M86 0v670h95v-307l295 307h114l-322 -328q96 -28 176 -101q54 -49 92.5 -108.5t64.5 -132.5h-108q-19 56 -48 104.5t-71 89.5q-87 86 -193 100v-294h-95z" />
    <glyph glyph-name="L" unicode="L" horiz-adv-x="521" 
d="M86 0v670h95v-597h311v-73h-406z" />
    <glyph glyph-name="M" unicode="M" horiz-adv-x="818" 
d="M45 0l83 670h100l181 -491l180 491h101l84 -670h-93l-64 537l-173 -482h-72l-174 478l-62 -533h-91z" />
    <glyph glyph-name="N" unicode="N" horiz-adv-x="704" 
d="M86 0v670h91l350 -524v524h91v-670h-90l-351 526v-526h-91z" />
    <glyph glyph-name="O" unicode="O" horiz-adv-x="732" 
d="M366 -16q-102 0 -172.5 45.5t-107.5 125t-37 180.5t37 180.5t107.5 125t172.5 45.5t172.5 -45.5t107.5 -125t37 -180.5t-37 -180.5t-107.5 -125t-172.5 -45.5zM366 57q70 0 118.5 34.5t73.5 97t25 146.5q0 83 -25 146t-73.5 97.5t-118.5 34.5t-118.5 -34.5t-73.5 -97.5
t-25 -146q0 -84 25 -146.5t73.5 -97t118.5 -34.5z" />
    <glyph glyph-name="P" unicode="P" horiz-adv-x="589" 
d="M303 261h-122v-261h-95v670h235q116 0 173.5 -56t57.5 -143q0 -95 -59.5 -152.5t-189.5 -57.5zM306 603h-125v-274h125q76 0 113 36.5t37 101.5t-37 100.5t-113 35.5z" />
    <glyph glyph-name="Q" unicode="Q" horiz-adv-x="732" 
d="M366 -16q-102 0 -172.5 45.5t-107.5 124.5t-37 181q0 101 37 180.5t107.5 125t172.5 45.5q101 0 172 -45.5t108 -125t37 -180.5q0 -85 -26.5 -155.5t-77 -118t-123.5 -66.5q36 -23 84.5 -32t108.5 -9v-89q-75 4 -127 18.5t-87 39t-60 61.5h-9zM366 57q70 0 118.5 34.5
t73.5 97t25 146.5q0 83 -25 146t-73.5 97.5t-118.5 34.5t-118.5 -34.5t-73.5 -97.5t-25 -146q0 -84 25 -146.5t73.5 -97t118.5 -34.5z" />
    <glyph glyph-name="R" unicode="R" horiz-adv-x="620" 
d="M86 0v670h230q84 0 138 -24.5t80.5 -66.5t26.5 -95q0 -78 -53 -123.5t-143 -55.5q79 -27 135.5 -101t92.5 -204h-102q-40 151 -108.5 218t-175.5 67h-26v-285h-95zM297 603h-116v-254h107q88 0 132 33.5t44 94.5q0 59 -39 92.5t-128 33.5z" />
    <glyph glyph-name="S" unicode="S" horiz-adv-x="591" 
d="M299 -16q-119 0 -187 53t-78 149h95q9 -51 35 -80t62.5 -41t76.5 -12q73 0 112.5 32t39.5 82q0 49 -28.5 78.5t-91.5 44.5l-115 28q-48 12 -85 33.5t-57.5 58t-20.5 93.5q0 55 30 96.5t83.5 64t122.5 22.5q107 0 169 -52t76 -147h-94q-23 130 -154 130q-63 0 -101 -28.5
t-38 -78.5q0 -49 24.5 -73t77.5 -37l112 -27q96 -23 140.5 -68.5t44.5 -128.5q0 -88 -66 -140t-185 -52z" />
    <glyph glyph-name="T" unicode="T" horiz-adv-x="583" 
d="M244 0v597h-222v73h539v-73h-222v-597h-95z" />
    <glyph glyph-name="U" unicode="U" horiz-adv-x="678" 
d="M339 -16q-129 0 -197.5 73t-68.5 199v414h95v-419q0 -92 44 -143t127 -51q84 0 127.5 51t43.5 143v419h95v-414q0 -125 -69.5 -198.5t-196.5 -73.5z" />
    <glyph glyph-name="V" unicode="V" horiz-adv-x="624" 
d="M121 670l192 -572l195 572h94l-242 -670h-98l-240 670h99z" />
    <glyph glyph-name="W" unicode="W" horiz-adv-x="914" 
d="M205 0l-179 670h98l141 -552l154 552h81l154 -554l142 554h92l-179 -670h-103l-148 534l-150 -534h-103z" />
    <glyph glyph-name="X" unicode="X" horiz-adv-x="613" 
d="M137 670l171 -260l175 260h102l-225 -326l235 -344h-107l-181 278l-186 -278h-102l236 343l-223 327h105z" />
    <glyph glyph-name="Y" unicode="Y" horiz-adv-x="596" 
d="M118 670l182 -334l183 334h96l-234 -401v-269h-95v269l-233 401h101z" />
    <glyph glyph-name="Z" unicode="Z" horiz-adv-x="578" 
d="M44 0v57l376 541h-366v72h481v-57l-375 -541h383v-72h-499z" />
    <glyph glyph-name="a" unicode="a" horiz-adv-x="527" 
d="M199 -13q-74 0 -118 35.5t-44 102.5q0 54 28.5 88.5t76.5 54.5t108 28t123 9v12q0 63 -29.5 97.5t-82.5 34.5q-47 0 -78 -24t-40 -70h-87q13 72 67.5 114t141.5 42q96 0 146.5 -53t50.5 -161v-297h-82l-5 71q-27 -40 -73.5 -62t-102.5 -22zM222 49q44 0 78 19.5
t53.5 52.5t19.5 74v55q-116 -1 -180.5 -30t-64.5 -88q0 -40 26.5 -61.5t67.5 -21.5z" />
    <glyph glyph-name="b" unicode="b" horiz-adv-x="580" 
d="M323 -13q-56 0 -97.5 25t-65.5 67l-5 -79h-82v700h90v-280q27 43 71 67t93 24q67 0 114 -34.5t72.5 -93.5t25.5 -134q0 -77 -27 -136t-75.5 -92.5t-113.5 -33.5zM302 54q46 0 78 25.5t49 70t17 99.5t-17 99.5t-49 70t-78 25.5q-38 0 -70 -22t-51.5 -64t-19.5 -101v-15
q0 -88 41 -138t100 -50z" />
    <glyph glyph-name="c" unicode="c" horiz-adv-x="538" 
d="M282 -13q-66 0 -121 30t-87.5 88.5t-32.5 143.5q0 82 32.5 140.5t87.5 90t122 31.5q52 0 97.5 -19.5t77.5 -59.5t42 -100h-90q-14 62 -49 88.5t-79 26.5q-37 0 -71 -20t-55.5 -63.5t-21.5 -114.5q0 -70 21.5 -113.5t55.5 -64t71 -20.5q45 0 79.5 28.5t51.5 95.5h88
q-11 -64 -44 -105.5t-79 -62t-96 -20.5z" />
    <glyph glyph-name="d" unicode="d" horiz-adv-x="580" 
d="M257 511q54 0 95 -23.5t65 -63.5v276h90v-700h-82l-5 83q-26 -46 -71 -71t-95 -25q-67 0 -114.5 34.5t-73 93.5t-25.5 134q0 77 27 136t75.5 92.5t113.5 33.5zM278 444q-46 0 -78 -25.5t-49 -70t-17 -99.5t17 -99.5t49 -70t78 -25.5q38 0 70 22t51.5 64t19.5 102v15
q0 87 -41 137t-100 50z" />
    <glyph glyph-name="e" unicode="e" horiz-adv-x="548" 
d="M280 -13q-64 0 -118.5 29t-87.5 87t-33 146q0 83 32.5 141.5t86.5 89.5t118 31q70 0 121.5 -31.5t80.5 -90t29 -139.5v-24h-378q5 -79 42.5 -128t107.5 -49q57 0 89.5 28.5t45.5 76.5h87q-21 -84 -81 -125.5t-142 -41.5zM278 449q-58 0 -99.5 -43t-46.5 -120h287
q-7 75 -42.5 119t-98.5 44z" />
    <glyph glyph-name="f" unicode="f" horiz-adv-x="344" 
d="M15 498h78v17q0 198 166 198q25 0 48 -5t45 -14l-16 -63q-16 6 -32 9t-35 3q-39 0 -62.5 -27.5t-23.5 -87.5v-30h144v-63h-144v-435h-90v435h-78v63z" />
    <glyph glyph-name="g" unicode="g" horiz-adv-x="580" 
d="M273 -223q-84 0 -143.5 42.5t-73.5 127.5h88q10 -55 45 -82t84 -27q69 0 106 41.5t37 126.5v79q-26 -42 -69.5 -65t-94.5 -23q-66 0 -113 33.5t-72.5 92t-25.5 132.5q0 75 27 132.5t75.5 90.5t112.5 33q56 0 98 -25t65 -66l5 78h82v-464q0 -257 -233 -257zM277 64
q58 0 99.5 47.5t41.5 135.5v16q0 85 -40.5 133t-100.5 48q-45 0 -77 -25t-49 -67.5t-17 -96.5q0 -55 17 -98t49 -68t77 -25z" />
    <glyph glyph-name="h" unicode="h" horiz-adv-x="575" 
d="M73 0v700h90v-282q26 47 71.5 70t95.5 23q90 0 135 -54t45 -146v-311h-90v298q0 145 -117 145q-60 0 -100 -46t-40 -140v-257h-90z" />
    <glyph glyph-name="i" unicode="i" horiz-adv-x="238" 
d="M118 582q-24 0 -40.5 16t-16.5 41q0 24 16.5 40t40.5 16q25 0 41.5 -16t16.5 -40q0 -25 -16.5 -41t-41.5 -16zM74 0v498h90v-498h-90z" />
    <glyph glyph-name="j" unicode="j" horiz-adv-x="245" 
d="M122 582q-24 0 -40.5 16t-16.5 41q0 24 16.5 40t40.5 16q25 0 41.5 -16t16.5 -40q0 -25 -16.5 -41t-41.5 -16zM-75 -209l15 64q23 -8 53 -8q39 0 62 26.5t23 83.5v541h90v-530q0 -94 -41 -142.5t-126 -48.5q-39 0 -76 14z" />
    <glyph glyph-name="k" unicode="k" horiz-adv-x="510" 
d="M73 0v700h90v-412l217 211h102l-242 -228q73 -26 130 -78q86 -78 126 -193h-99q-27 88 -90 149q-31 29 -66.5 50t-77.5 33v-232h-90z" />
    <glyph glyph-name="l" unicode="l" horiz-adv-x="238" 
d="M74 0v700h90v-700h-90z" />
    <glyph glyph-name="m" unicode="m" horiz-adv-x="898" 
d="M73 498h82l5 -81q26 48 69.5 71t94.5 23q62 0 102.5 -29t57.5 -80q25 55 72.5 82t102.5 27q85 0 129.5 -54t44.5 -146v-311h-90v298q0 74 -29 109.5t-82 35.5q-56 0 -95 -46t-39 -140v-257h-90v298q0 74 -29 109.5t-82 35.5q-55 0 -94.5 -46t-39.5 -140v-257h-90v498z
" />
    <glyph glyph-name="n" unicode="n" horiz-adv-x="575" 
d="M73 0v498h82l5 -86q26 50 72 74.5t98 24.5q90 0 135 -54t45 -146v-311h-90v298q0 145 -117 145q-60 0 -100 -46t-40 -140v-257h-90z" />
    <glyph glyph-name="o" unicode="o" horiz-adv-x="570" 
d="M285 -13q-73 0 -128 34t-85.5 93.5t-30.5 134.5t30.5 134.5t85.5 93.5t128 34t128 -34t85.5 -93.5t30.5 -134.5t-30.5 -134.5t-85.5 -93.5t-128 -34zM285 51q70 0 110.5 55t40.5 143t-40.5 143t-110.5 55t-110.5 -55t-40.5 -143t40.5 -143t110.5 -55z" />
    <glyph glyph-name="p" unicode="p" horiz-adv-x="580" 
d="M73 -210v708h82l5 -83q26 46 71 71t96 25q67 0 114 -34.5t72.5 -93.5t25.5 -134q0 -77 -27 -136t-75.5 -92.5t-113.5 -33.5q-54 0 -95 23.5t-65 63.5v-284h-90zM302 54q46 0 78 25.5t49 70t17 99.5t-17 99.5t-49 70t-78 25.5q-38 0 -70 -22t-51.5 -64t-19.5 -101v-15
q0 -88 41 -138t100 -50z" />
    <glyph glyph-name="q" unicode="q" horiz-adv-x="580" 
d="M257 511q56 0 97.5 -25t65.5 -67l5 79h82v-708h-90v288q-27 -43 -71 -67t-93 -24q-67 0 -114 34.5t-72.5 93.5t-25.5 134q0 77 26.5 136t75 92.5t114.5 33.5zM277 445q-45 0 -77 -25.5t-49 -70t-17 -100.5q0 -55 17 -99.5t49 -70t77 -25.5q39 0 71 22t51 64t19 102v15
q0 88 -40.5 138t-100.5 50z" />
    <glyph glyph-name="r" unicode="r" horiz-adv-x="352" 
d="M73 0v498h80l5 -98q18 44 55 75.5t88 31.5q10 0 17 -1.5t15 -2.5v-83q-6 2 -16 3t-21 1q-33 0 -63.5 -18t-50 -57t-19.5 -101v-248h-90z" />
    <glyph glyph-name="s" unicode="s" horiz-adv-x="491" 
d="M249 -13q-95 0 -150 42t-64 119h90q6 -40 25 -62t45.5 -31t54.5 -9q55 0 84 20.5t29 57.5q0 63 -91 85l-81 20q-65 16 -101 48.5t-36 92.5q0 64 53 102.5t138 38.5q88 0 139 -39t63 -110h-89q-18 90 -116 90q-45 0 -72 -20.5t-27 -57.5q0 -29 19.5 -46t59.5 -27l81 -20
q71 -17 109.5 -51t38.5 -99q0 -67 -53 -105.5t-149 -38.5z" />
    <glyph glyph-name="t" unicode="t" horiz-adv-x="359" 
d="M246 -13q-79 0 -118 43t-39 120v285h-72v63h72v148h90v-148h145v-63h-145v-282q0 -51 22.5 -73.5t54.5 -22.5q20 0 35.5 3t31.5 9l16 -63q-22 -9 -44.5 -14t-48.5 -5z" />
    <glyph glyph-name="u" unicode="u" horiz-adv-x="564" 
d="M491 498v-498h-82l-5 81q-26 -48 -69.5 -71t-94.5 -23q-86 0 -130 54t-44 146v311h90v-298q0 -74 29 -109.5t82 -35.5q55 0 94.5 46t39.5 140v257h90z" />
    <glyph glyph-name="v" unicode="v" horiz-adv-x="504" 
d="M205 0l-190 498h97l144 -404l143 404h90l-190 -498h-94z" />
    <glyph glyph-name="w" unicode="w" horiz-adv-x="758" 
d="M168 0l-153 498h95l111 -404l123 404h79l123 -405l111 405h86l-153 -498h-93l-118 384l-118 -384h-93z" />
    <glyph glyph-name="x" unicode="x" horiz-adv-x="496" 
d="M12 0l189 256l-176 242h102l124 -183l133 183h93l-179 -239l187 -259h-102l-135 198l-143 -198h-93z" />
    <glyph glyph-name="y" unicode="y" horiz-adv-x="497" 
d="M-5 -202l21 63q15 -7 33 -11t35 -4q31 0 54 20t42 66l33 80l-198 486h95l143 -393l141 393h88l-226 -576q-28 -74 -69 -109.5t-100 -35.5q-48 0 -92 21z" />
    <glyph glyph-name="z" unicode="z" horiz-adv-x="481" 
d="M42 0v52l290 380h-279v66h386v-52l-293 -380h303v-66h-407z" />
    <glyph glyph-name="dotlessi" unicode="&#x131;" horiz-adv-x="238" 
d="M74 0v498h90v-498h-90z" />
    <glyph glyph-name="glyph231" horiz-adv-x="565" 
d="M62 -50h88q9 -56 40.5 -82.5t78.5 -26.5q62 0 97 41.5t35 126.5v88q-24 -48 -68.5 -72.5t-94.5 -24.5q-86 0 -129 54t-43 146v298h90v-285q0 -145 111 -145q58 0 96 46t38 140v244h90v-461q0 -128 -57 -192.5t-165 -64.5q-80 0 -137.5 42.5t-69.5 127.5z" />
    <glyph glyph-name="glyph232" 
d="M-132 306q-26 0 -43 17t-17 42q0 26 17 42.5t43 16.5t42.5 -16.5t16.5 -42.5q0 -25 -17 -42t-42 -17z" />
    <glyph glyph-name="IJ" unicode="&#x132;" horiz-adv-x="648" 
d="M324 -16q-109 0 -174 60.5t-76 167.5h94q9 -74 47.5 -114.5t108.5 -40.5q76 0 116 48.5t40 151.5v413h94v-407q0 -140 -69 -209.5t-181 -69.5zM169 309h-95v361h95v-361z" />
    <glyph glyph-name="Thorn" unicode="&#xde;" horiz-adv-x="589" 
d="M86 670h95v-123h140q116 0 173.5 -56t57.5 -143q0 -94 -59.5 -152t-189.5 -58h-122v-138h-95v670zM306 480h-125v-274h125q76 0 113 37t37 101q0 65 -37 100.5t-113 35.5z" />
    <glyph glyph-name="AE" unicode="&#xc6;" horiz-adv-x="933" 
d="M22 0l397 670h461v-73h-325v-225h294v-70h-294v-229h329v-73h-423v160h-254l-92 -160h-93zM250 233h211v366z" />
    <glyph glyph-name="OE" unicode="&#x152;" horiz-adv-x="961" 
d="M49 335q0 96 40 171.5t119.5 119.5t200.5 44h499v-73h-324v-225h293v-70h-293v-229h328v-73h-503q-121 0 -200.5 44t-119.5 119.5t-40 171.5zM409 73h80v524h-80q-134 0 -197 -71.5t-63 -190.5q0 -79 27 -138t84.5 -91.5t148.5 -32.5z" />
    <glyph glyph-name="uni1E9E" unicode="&#x1e9e;" horiz-adv-x="666" 
d="M76 0v420q0 128 67.5 197t188.5 69q85 0 146.5 -37.5t101.5 -107.5l-160 -152q69 -6 113.5 -34.5t66 -72.5t21.5 -95q0 -90 -60 -146.5t-175 -56.5q-26 0 -57 5t-55 16l14 65q20 -8 42 -11.5t42 -3.5q71 0 111 35t40 101q0 65 -42 102.5t-129 37.5h-20v60l156 154
q-24 35 -63.5 54t-94.5 19q-74 0 -116.5 -45t-42.5 -135v-438h-95z" />
    <glyph glyph-name="Eng" unicode="&#x14a;" horiz-adv-x="704" 
d="M86 0v670h91l350 -519v519h91v-648q0 -125 -49 -185t-146 -60q-61 0 -112 20l17 70q20 -7 40 -10.5t46 -3.5q56 0 83 34.5t27 108.5v22l-347 514v-532h-91z" />
    <glyph glyph-name="Eth" unicode="&#xd0;" horiz-adv-x="722" 
d="M106 0v304h-82v66h82v300h207q121 0 201 -44t120 -120t40 -171q0 -96 -40 -171.5t-120 -119.5t-200 -44h-208zM392 304h-195v-233h116q134 0 197 72t63 192q0 81 -27 140.5t-84.5 92t-148.5 32.5h-116v-230h195v-66z" />
    <glyph glyph-name="Dcroat" unicode="&#x110;" horiz-adv-x="722" 
d="M106 0v304h-82v66h82v300h207q121 0 201 -44t120 -120t40 -171q0 -96 -40 -171.5t-120 -119.5t-200 -44h-208zM392 304h-195v-233h116q134 0 197 72t63 192q0 81 -27 140.5t-84.5 92t-148.5 32.5h-116v-230h195v-66z" />
    <glyph glyph-name="Hbar" unicode="&#x126;" horiz-adv-x="740" 
d="M106 0v487h-82v62h82v121h95v-121h338v121h95v-121h82v-62h-82v-487h-95v297h-338v-297h-95zM201 369h338v118h-338v-118z" />
    <glyph glyph-name="Tbar" unicode="&#x166;" horiz-adv-x="583" 
d="M244 0v297h-152v66h152v234h-222v73h539v-73h-222v-234h152v-66h-152v-297h-95z" />
    <glyph glyph-name="Lslash" unicode="&#x141;" horiz-adv-x="521" 
d="M86 0v255l-82 -44v73l82 44v342h95v-291l179 97v-73l-179 -97v-233h311v-73h-406z" />
    <glyph glyph-name="Oslash" unicode="&#xd8;" horiz-adv-x="732" 
d="M90 -7l53 78q-46 47 -70 115t-24 149q0 101 37 180.5t107.5 125t172.5 45.5q47 0 88 -10.5t75 -30.5l50 74l63 -42l-53 -78q46 -47 70 -115t24 -149q0 -102 -37 -181t-108 -124.5t-172 -45.5q-48 0 -89 10.5t-75 30.5l-50 -74zM149 335q0 -117 47 -189l290 431
q-50 36 -120 36t-118.5 -34.5t-73.5 -97.5t-25 -146zM366 57q70 0 118.5 34.5t73.5 97t25 146.5q0 117 -47 189l-291 -430q50 -37 121 -37z" />
    <glyph glyph-name="glyph250" horiz-adv-x="70" 
d="M36 281q-26 0 -43 17t-17 42q0 26 17 42.5t43 16.5t42.5 -16.5t16.5 -42.5q0 -25 -17 -42t-42 -17z" />
    <glyph glyph-name="ij" unicode="&#x133;" horiz-adv-x="565" 
d="M53 639q0 24 16.5 40t40.5 16q25 0 41.5 -16t16.5 -40t-16.5 -40.5t-41.5 -16.5q-24 0 -40.5 16.5t-16.5 40.5zM387 639q0 24 17 40t41 16q25 0 41.5 -16t16.5 -40t-16.5 -40.5t-41.5 -16.5q-24 0 -41 16.5t-17 40.5zM62 -53h88q9 -55 40.5 -82t78.5 -27q62 0 97 41.5
t35 126.5v82q-26 -44 -69 -66t-92 -22q-86 0 -130 54t-44 146v298h90v-285q0 -73 29 -109t82 -36q55 0 94.5 46t39.5 140v244h90v-464q0 -128 -57 -192.5t-165 -64.5q-80 0 -137.5 42.5t-69.5 127.5z" />
    <glyph glyph-name="thorn" unicode="&#xfe;" horiz-adv-x="580" 
d="M323 -13q-54 0 -95 24t-65 64v-285h-90v910h90v-282q26 45 70 69t94 24q67 0 114 -34.5t72.5 -93.5t25.5 -134q0 -77 -27 -136t-75.5 -92.5t-113.5 -33.5zM302 54q46 0 78 25.5t49 70t17 99.5t-17 99.5t-49 70t-78 25.5q-38 0 -70 -22t-51.5 -64t-19.5 -101v-15
q0 -88 41 -138t100 -50z" />
    <glyph glyph-name="ae" unicode="&#xe6;" horiz-adv-x="874" 
d="M829 154q-22 -84 -82 -125.5t-140 -41.5q-66 0 -118 31.5t-79 92.5q-22 -55 -77.5 -89.5t-128.5 -34.5q-76 0 -121.5 35.5t-45.5 102.5q0 54 28.5 88.5t77 54.5t108.5 28.5t122 9.5v11q0 63 -29.5 97.5t-81.5 34.5q-46 0 -77.5 -24t-41.5 -70h-87q14 73 68 114.5
t142 41.5q116 0 159 -93q32 46 78.5 69.5t100.5 23.5q70 0 121.5 -31.5t80.5 -90t29 -139.5v-24h-379q5 -78 42.5 -127.5t108.5 -49.5q57 0 89 28.5t46 76.5h87zM604 449q-58 0 -99.5 -43t-47.5 -120h288q-7 75 -43 119t-98 44zM226 49q65 0 106 41t41 104v56
q-119 -2 -182 -30.5t-63 -85.5q0 -41 27 -63t71 -22z" />
    <glyph glyph-name="oe" unicode="&#x153;" horiz-adv-x="941" 
d="M896 154q-22 -84 -82 -125.5t-142 -41.5q-59 0 -110.5 27t-83.5 81q-30 -50 -79.5 -79t-113.5 -29q-73 0 -128 34t-85.5 93.5t-30.5 134.5t30.5 134.5t85.5 93.5t128 34q64 0 114 -29.5t80 -80.5q32 53 82.5 81.5t109.5 28.5q69 0 121 -31.5t81 -90.5t29 -142v-21h-378
q4 -78 42 -127.5t108 -49.5q57 0 89 28.5t45 76.5h88zM671 449q-57 0 -99 -43t-48 -120h286q-7 76 -42 119.5t-97 43.5zM285 51q69 0 109.5 55t40.5 143t-40.5 143t-109.5 55q-70 0 -110.5 -55t-40.5 -143t40.5 -143t110.5 -55z" />
    <glyph glyph-name="germandbls" unicode="&#xdf;" horiz-adv-x="601" 
d="M335 55q61 0 99 37t38 103q0 68 -42 107.5t-133 39.5h-23v63h22q60 0 95 31.5t35 88.5q0 59 -31.5 91t-94.5 32q-62 0 -99 -40.5t-37 -119.5v-488h-90v459q0 122 58.5 188t169.5 66q68 0 116.5 -24t74 -65.5t25.5 -94.5q0 -46 -21.5 -87t-77.5 -63q56 -14 87.5 -43
t45 -67.5t13.5 -79.5q0 -95 -57.5 -148.5t-160.5 -53.5q-57 0 -103 18l14 63q20 -8 38.5 -10.5t38.5 -2.5z" />
    <glyph glyph-name="eng" unicode="&#x14b;" horiz-adv-x="575" 
d="M73 0v498h81l4 -97q22 56 69.5 83t102.5 27q90 0 135 -54t45 -146v-344q0 -92 -41 -141t-126 -49q-39 0 -76 14l15 64q23 -8 53 -8q39 0 62 26.5t23 82.5v342q0 145 -117 145q-60 0 -100 -46t-40 -140v-257h-90z" />
    <glyph glyph-name="eth" unicode="&#xf0;" horiz-adv-x="559" 
d="M281 -13q-71 0 -125 32.5t-84.5 89.5t-30.5 133q0 72 28 128.5t76.5 89t109.5 32.5q56 0 99 -26.5t67 -70.5q-8 61 -39 112.5t-82 87.5l-94 -75l-32 40l79 62q-47 22 -101 30l15 67q84 -9 152 -45l84 66l30 -39l-70 -56q74 -55 114.5 -146t40.5 -215q0 -95 -30.5 -161.5
t-84 -101t-122.5 -34.5zM281 51q66 0 105 52t39 137q0 56 -19 98t-51.5 64.5t-73.5 22.5q-70 0 -108 -52.5t-38 -134.5q0 -83 39.5 -135t106.5 -52z" />
    <glyph glyph-name="dcroat" unicode="&#x111;" horiz-adv-x="585" 
d="M254 -13q-66 0 -114 33t-73.5 90t-25.5 129q0 73 27 130t75.5 89.5t113.5 32.5q54 0 95 -25t65 -67v165h-165v55h165v81h90v-81h72v-55h-72v-564h-82l-5 83q-26 -46 -71 -71t-95 -25zM278 424q-46 0 -78 -24.5t-49 -66t-17 -94.5t17 -94.5t49 -66t78 -24.5q38 0 70 21.5
t51.5 61t19.5 95.5v15q0 54 -19 93.5t-50.5 61.5t-71.5 22z" />
    <glyph glyph-name="hbar" unicode="&#x127;" horiz-adv-x="590" 
d="M88 0v564h-72v55h72v81h90v-81h165v-55h-165v-171q25 50 70 74t97 24q90 0 135 -54t45 -146v-291h-90v278q0 145 -117 145q-60 0 -100 -46t-40 -140v-237h-90z" />
    <glyph glyph-name="tbar" unicode="&#x167;" horiz-adv-x="357" 
d="M17 234v62h72v141h-72v62h72v147h90v-147h145v-62h-145v-141h145v-62h-145v-81q0 -51 22.5 -73.5t54.5 -22.5q20 0 35.5 3t31.5 9l16 -63q-22 -9 -44.5 -14t-48.5 -5q-79 0 -118 43t-39 120v84h-72z" />
    <glyph glyph-name="lslash" unicode="&#x142;" horiz-adv-x="290" 
d="M100 0v320l-89 -50v65l89 50v315h90v-265l90 51v-65l-90 -51v-370h-90z" />
    <glyph glyph-name="oslash" unicode="&#xf8;" horiz-adv-x="570" 
d="M71 -11l44 65q-35 35 -54.5 85t-19.5 110q0 75 30.5 134.5t85.5 93.5t128 34q66 0 119 -29l42 62l52 -35l-44 -64q36 -36 55.5 -86t19.5 -110q0 -75 -30.5 -134.5t-85.5 -93.5t-128 -34q-66 0 -120 30l-42 -62zM134 249q0 -75 30 -126l201 299q-35 25 -80 25
q-70 0 -110.5 -55t-40.5 -143zM285 51q70 0 110.5 55t40.5 143q0 76 -31 128l-201 -300q35 -26 81 -26z" />
    <glyph glyph-name="uniFB00" unicode="&#xfb00;" horiz-adv-x="665" 
d="M15 498h78v19q0 95 42 145.5t125 50.5q48 0 92 -22l-16 -57q-32 13 -64 13q-42 0 -65.5 -28t-23.5 -91v-30h231v19q0 95 42 145.5t126 50.5q47 0 91 -22l-15 -57q-33 13 -64 13q-43 0 -66.5 -28t-23.5 -91v-30h144v-64h-144v-434h-90v434h-231v-434h-90v434h-78v64z" />
    <glyph glyph-name="uniFB01" unicode="&#xfb01;" horiz-adv-x="579" 
d="M15 498h78v19q0 95 42 145.5t125 50.5q21 0 41 -4.5t41 -12.5l-16 -59q-27 10 -54 10q-42 0 -65.5 -28t-23.5 -91v-30h138v-64h-138v-434h-90v434h-78v64zM401 640q0 24 16.5 40t41.5 16q24 0 41 -16t17 -40q0 -25 -17 -41t-41 -16q-25 0 -41.5 16t-16.5 41zM414 498h90
v-498h-90v498z" />
    <glyph glyph-name="uniFB02" unicode="&#xfb02;" horiz-adv-x="574" 
d="M15 498h78v19q0 95 42 145.5t125 50.5q21 0 41 -4.5t41 -12.5l-16 -59q-27 10 -54 10q-42 0 -65.5 -28t-23.5 -91v-30h138v-64h-138v-434h-90v434h-78v64zM410 700h90v-700h-90v700z" />
    <glyph glyph-name="uniFB03" unicode="&#xfb03;" horiz-adv-x="899" 
d="M15 498h78v19q0 95 42 145.5t125 50.5q48 0 92 -22l-16 -57q-32 13 -64 13q-42 0 -65.5 -28t-23.5 -91v-30h230v19q0 95 42 145.5t126 50.5q21 0 40.5 -4.5t40.5 -12.5l-16 -59q-27 10 -53 10q-43 0 -66.5 -28t-23.5 -91v-30h138v-64h-138v-434h-90v434h-230v-434h-90
v434h-78v64zM721 640q0 24 16.5 40t41.5 16q24 0 41 -16t17 -40q0 -25 -17 -41t-41 -16q-25 0 -41.5 16t-16.5 41zM734 498h90v-498h-90v498z" />
    <glyph glyph-name="uniFB04" unicode="&#xfb04;" horiz-adv-x="894" 
d="M15 498h78v19q0 95 42 145.5t125 50.5q48 0 92 -22l-16 -57q-32 13 -64 13q-42 0 -65.5 -28t-23.5 -91v-30h230v19q0 95 42 145.5t126 50.5q21 0 40.5 -4.5t40.5 -12.5l-16 -59q-27 10 -53 10q-43 0 -66.5 -28t-23.5 -91v-30h138v-64h-138v-434h-90v434h-230v-434h-90
v434h-78v64zM730 700h90v-700h-90v700z" />
    <glyph glyph-name="uni0327" unicode="&#x327;" 
d="M-37 0h46l-12 -63q13 4 27 4q40 0 66.5 -24.5t26.5 -62.5q0 -46 -33.5 -74t-89.5 -28q-33 0 -72 10l4 46q18 -5 34.5 -7t32.5 -2q31 0 49 14.5t18 38.5q0 21 -14 35t-37 14q-22 0 -37 -9h-24z" />
    <glyph glyph-name="glyph269" 
d="M-27 1h49l-10 -61q12 3 25 3q41 0 67.5 -25t26.5 -64q0 -48 -33.5 -75.5t-89.5 -27.5q-19 0 -37 2t-38 8l4 49q18 -5 35.5 -7t33.5 -2q29 0 46.5 14t17.5 37q0 20 -13 33.5t-36 13.5q-11 0 -19 -2.5t-16 -6.5h-27z" />
    <glyph glyph-name="cedilla" unicode="&#xb8;" horiz-adv-x="500" 
d="M198 0h46l-12 -63q13 4 27 4q40 0 66.5 -24.5t26.5 -62.5q0 -46 -33.5 -74t-89.5 -28q-33 0 -72 10l4 46q18 -5 34.5 -7t32.5 -2q31 0 49 14.5t18 38.5q0 21 -14 35t-37 14q-22 0 -37 -9h-24z" />
    <glyph glyph-name="uni0326" unicode="&#x326;" 
d="M-64 -301v40q57 20 65 68h-1q-21 0 -36.5 14.5t-15.5 37.5t15 37.5t38 14.5t40 -18.5t17 -51.5q0 -50 -31.5 -87.5t-90.5 -54.5z" />
    <glyph glyph-name="glyph272" 
d="M-66 -309v44q56 21 66 67q-22 0 -38.5 15t-16.5 40q0 24 16 39t40 15q25 0 42 -19.5t17 -53.5q0 -53 -32 -91.5t-94 -55.5z" />
    <glyph glyph-name="uni0312" unicode="&#x312;" 
d="M60 788v-40q-55 -22 -62 -65q21 0 36.5 -15t15.5 -38q0 -22 -15 -37t-38 -15t-39.5 19t-16.5 53q0 50 30.5 86t88.5 52z" />
    <glyph glyph-name="glyph274" horiz-adv-x="500" 
d="M176 -301v40q57 20 65 68h-1q-21 0 -36.5 14.5t-15.5 37.5t15 37.5t38 14.5t40 -18.5t17 -51.5q0 -50 -31.5 -87.5t-90.5 -54.5z" />
    <glyph glyph-name="uni0328" unicode="&#x328;" 
d="M11 -238q-57 0 -87.5 28.5t-30.5 72.5q0 43 25 78.5t80 63.5l70 -5q-56 -19 -82 -49.5t-26 -68.5q0 -30 18 -47.5t47 -17.5q12 0 25.5 2t28.5 7v-53q-34 -11 -68 -11z" />
    <glyph glyph-name="glyph276" 
d="M14 -242q-61 0 -92.5 29t-31.5 75q0 42 23.5 76t78.5 62h83q-59 -20 -85.5 -51t-26.5 -69q0 -28 17.5 -44.5t47.5 -16.5q28 0 59 10v-59q-37 -12 -73 -12z" />
    <glyph glyph-name="glyph277" 
d="M12 -238q-57 0 -87.5 28.5t-30.5 72.5q0 43 25 81.5t80 67.5l71 15q-58 -38 -83.5 -71.5t-25.5 -74.5q0 -29 18 -46.5t47 -17.5q12 0 25.5 2t28.5 7v-53q-34 -11 -68 -11z" />
    <glyph glyph-name="glyph278" 
d="M12 -241q-58 0 -89.5 29.5t-31.5 75.5q0 45 25.5 83t81.5 68l76 11q-61 -38 -85.5 -71.5t-24.5 -73.5q0 -28 17 -44.5t45 -16.5q11 0 25.5 2t31.5 8v-59q-19 -7 -36 -9.5t-35 -2.5z" />
    <glyph glyph-name="ogonek" unicode="&#x2db;" horiz-adv-x="500" 
d="M247 -238q-57 0 -87.5 28.5t-30.5 72.5q0 43 25 78.5t80 63.5l70 -5q-56 -19 -82 -49.5t-26 -68.5q0 -30 18 -47.5t47 -17.5q12 0 25.5 2t28.5 7v-53q-34 -11 -68 -11z" />
    <glyph glyph-name="Ccedilla" unicode="&#xc7;" horiz-adv-x="690" 
d="M359 -16q-97 0 -166.5 44.5t-106.5 124t-37 182.5q0 102 37 181.5t106.5 124.5t166.5 45q118 0 194.5 -65t97.5 -177h-101q-17 80 -67 124.5t-124 44.5q-99 0 -154.5 -75.5t-55.5 -202.5t55.5 -202.5t154.5 -75.5q73 0 123 42t67 121h100q-19 -109 -96 -172.5t-194 -63.5
zM329 1h49l-10 -61q12 3 25 3q41 0 67.5 -25t26.5 -64q0 -48 -33.5 -75.5t-89.5 -27.5q-19 0 -37 2t-38 8l4 49q18 -5 35.5 -7t33.5 -2q29 0 46.5 14t17.5 37q0 20 -13 33.5t-36 13.5q-11 0 -19 -2.5t-16 -6.5h-27z" />
    <glyph glyph-name="Scedilla" unicode="&#x15e;" horiz-adv-x="591" 
d="M299 -16q-119 0 -187 53t-78 149h95q9 -51 35 -80t62.5 -41t76.5 -12q73 0 112.5 32t39.5 82q0 49 -28.5 78.5t-91.5 44.5l-115 28q-48 12 -85 33.5t-57.5 58t-20.5 93.5q0 55 30 96.5t83.5 64t122.5 22.5q107 0 169 -52t76 -147h-94q-23 130 -154 130q-63 0 -101 -28.5
t-38 -78.5q0 -49 24.5 -73t77.5 -37l112 -27q96 -23 140.5 -68.5t44.5 -128.5q0 -88 -66 -140t-185 -52zM265 1h49l-10 -61q12 3 25 3q41 0 67.5 -25t26.5 -64q0 -48 -33.5 -75.5t-89.5 -27.5q-19 0 -37 2t-38 8l4 49q18 -5 35.5 -7t33.5 -2q29 0 46.5 14t17.5 37
q0 20 -13 33.5t-36 13.5q-11 0 -19 -2.5t-16 -6.5h-27z" />
    <glyph glyph-name="Tcommaaccent" unicode="&#x162;" horiz-adv-x="583" 
d="M244 0v597h-222v73h539v-73h-222v-597h-95zM265 1h49l-10 -61q12 3 25 3q41 0 67.5 -25t26.5 -64q0 -48 -33.5 -75.5t-89.5 -27.5q-19 0 -37 2t-38 8l4 49q18 -5 35.5 -7t33.5 -2q29 0 46.5 14t17.5 37q0 20 -13 33.5t-36 13.5q-11 0 -19 -2.5t-16 -6.5h-27z" />
    <glyph glyph-name="Gcommaaccent" unicode="&#x122;" horiz-adv-x="718" 
d="M49 335q0 103 38.5 182t109.5 124t170 45q119 0 197 -62t96 -171h-101q-15 79 -65 120t-127 41q-67 0 -116.5 -34.5t-76 -97t-26.5 -147.5q0 -84 26.5 -147t76 -97.5t116.5 -34.5q94 0 148 54.5t62 153.5h-184v71h276v-30q0 -93 -34 -165.5t-101 -114t-167 -41.5t-171 45
t-109 124.5t-38 181.5zM301 -309v44q56 21 66 67q-22 0 -38.5 15t-16.5 40q0 24 16 39t40 15q25 0 42 -19.5t17 -53.5q0 -53 -32 -91.5t-94 -55.5z" />
    <glyph glyph-name="Kcommaaccent" unicode="&#x136;" horiz-adv-x="617" 
d="M86 0v670h95v-307l295 307h114l-322 -328q96 -28 176 -101q54 -49 92.5 -108.5t64.5 -132.5h-108q-19 56 -48 104.5t-71 89.5q-87 86 -193 100v-294h-95zM261 -309v44q56 21 66 67q-22 0 -38.5 15t-16.5 40q0 24 16 39t40 15q25 0 42 -19.5t17 -53.5q0 -53 -32 -91.5
t-94 -55.5z" />
    <glyph glyph-name="Lcommaaccent" unicode="&#x13b;" horiz-adv-x="521" 
d="M86 0v670h95v-597h311v-73h-406zM223 -309v44q56 21 66 67q-22 0 -38.5 15t-16.5 40q0 24 16 39t40 15q25 0 42 -19.5t17 -53.5q0 -53 -32 -91.5t-94 -55.5z" />
    <glyph glyph-name="Ncommaaccent" unicode="&#x145;" horiz-adv-x="704" 
d="M86 0v670h91l350 -524v524h91v-670h-90l-351 526v-526h-91zM286 -309v44q56 21 66 67q-22 0 -38.5 15t-16.5 40q0 24 16 39t40 15q25 0 42 -19.5t17 -53.5q0 -53 -32 -91.5t-94 -55.5z" />
    <glyph glyph-name="Scommaaccent" unicode="&#x218;" horiz-adv-x="591" 
d="M299 -16q-119 0 -187 53t-78 149h95q9 -51 35 -80t62.5 -41t76.5 -12q73 0 112.5 32t39.5 82q0 49 -28.5 78.5t-91.5 44.5l-115 28q-48 12 -85 33.5t-57.5 58t-20.5 93.5q0 55 30 96.5t83.5 64t122.5 22.5q107 0 169 -52t76 -147h-94q-23 130 -154 130q-63 0 -101 -28.5
t-38 -78.5q0 -49 24.5 -73t77.5 -37l112 -27q96 -23 140.5 -68.5t44.5 -128.5q0 -88 -66 -140t-185 -52zM226 -309v44q56 21 66 67q-22 0 -38.5 15t-16.5 40q0 24 16 39t40 15q25 0 42 -19.5t17 -53.5q0 -53 -32 -91.5t-94 -55.5z" />
    <glyph glyph-name="uni021A" unicode="&#x21a;" horiz-adv-x="583" 
d="M244 0v597h-222v73h539v-73h-222v-597h-95zM226 -309v44q56 21 66 67q-22 0 -38.5 15t-16.5 40q0 24 16 39t40 15q25 0 42 -19.5t17 -53.5q0 -53 -32 -91.5t-94 -55.5z" />
    <glyph glyph-name="Aogonek" unicode="&#x104;" horiz-adv-x="638" 
d="M519 0l-55 160h-293l-56 -160h-93l248 670h99l247 -670h-97zM196 232h243l-121 349zM541 -242q-61 0 -92.5 29t-31.5 75q0 42 23.5 76t78.5 62h83q-59 -20 -85.5 -51t-26.5 -69q0 -28 17.5 -44.5t47.5 -16.5q28 0 59 10v-59q-37 -12 -73 -12z" />
    <glyph glyph-name="Eogonek" unicode="&#x118;" horiz-adv-x="559" 
d="M86 0v670h420v-73h-325v-225h294v-70h-294v-229h329v-73h-424zM437 -242q-61 0 -92.5 29t-31.5 75q0 42 23.5 76t78.5 62h83q-59 -20 -85.5 -51t-26.5 -69q0 -28 17.5 -44.5t47.5 -16.5q28 0 59 10v-59q-37 -12 -73 -12z" />
    <glyph glyph-name="Iogonek" unicode="&#x12e;" horiz-adv-x="267" 
d="M86 0v670h95v-670h-95zM120 -242q-61 0 -92.5 29t-31.5 75q0 42 23.5 76t78.5 62h83q-59 -20 -85.5 -51t-26.5 -69q0 -28 17.5 -44.5t47.5 -16.5q28 0 59 10v-59q-37 -12 -73 -12z" />
    <glyph glyph-name="Uogonek" unicode="&#x172;" horiz-adv-x="677" 
d="M338 -16q-129 0 -197.5 73t-68.5 199v414h95v-419q0 -92 44 -143t127 -51q84 0 127.5 51t43.5 143v419h95v-414q0 -125 -69.5 -198.5t-196.5 -73.5zM434 -241q-58 0 -89.5 29.5t-31.5 75.5q0 45 25.5 83t81.5 68l76 11q-61 -38 -85.5 -71.5t-24.5 -73.5q0 -28 17 -44.5
t45 -16.5q11 0 25.5 2t31.5 8v-59q-19 -7 -36 -9.5t-35 -2.5z" />
    <glyph glyph-name="ccedilla" unicode="&#xe7;" horiz-adv-x="538" 
d="M282 -13q-66 0 -121 30t-87.5 88.5t-32.5 143.5q0 82 32.5 140.5t87.5 90t122 31.5q52 0 97.5 -19.5t77.5 -59.5t42 -100h-90q-14 62 -49 88.5t-79 26.5q-37 0 -71 -20t-55.5 -63.5t-21.5 -114.5q0 -70 21.5 -113.5t55.5 -64t71 -20.5q45 0 79.5 28.5t51.5 95.5h88
q-11 -64 -44 -105.5t-79 -62t-96 -20.5zM245 0h46l-12 -63q13 4 27 4q40 0 66.5 -24.5t26.5 -62.5q0 -46 -33.5 -74t-89.5 -28q-33 0 -72 10l4 46q18 -5 34.5 -7t32.5 -2q31 0 49 14.5t18 38.5q0 21 -14 35t-37 14q-22 0 -37 -9h-24z" />
    <glyph glyph-name="scedilla" unicode="&#x15f;" horiz-adv-x="491" 
d="M249 -13q-95 0 -150 42t-64 119h90q6 -40 25 -62t45.5 -31t54.5 -9q55 0 84 20.5t29 57.5q0 63 -91 85l-81 20q-65 16 -101 48.5t-36 92.5q0 64 53 102.5t138 38.5q88 0 139 -39t63 -110h-89q-18 90 -116 90q-45 0 -72 -20.5t-27 -57.5q0 -29 19.5 -46t59.5 -27l81 -20
q71 -17 109.5 -51t38.5 -99q0 -67 -53 -105.5t-149 -38.5zM205 0h46l-12 -63q13 4 27 4q40 0 66.5 -24.5t26.5 -62.5q0 -46 -33.5 -74t-89.5 -28q-33 0 -72 10l4 46q18 -5 34.5 -7t32.5 -2q31 0 49 14.5t18 38.5q0 21 -14 35t-37 14q-22 0 -37 -9h-24z" />
    <glyph glyph-name="tcommaaccent" unicode="&#x163;" horiz-adv-x="359" 
d="M246 -13q-79 0 -118 43t-39 120v285h-72v63h72v148h90v-148h145v-63h-145v-282q0 -51 22.5 -73.5t54.5 -22.5q20 0 35.5 3t31.5 9l16 -63q-22 -9 -44.5 -14t-48.5 -5zM176 0h46l-12 -63q13 4 27 4q40 0 66.5 -24.5t26.5 -62.5q0 -46 -33.5 -74t-89.5 -28q-33 0 -72 10
l4 46q18 -5 34.5 -7t32.5 -2q31 0 49 14.5t18 38.5q0 21 -14 35t-37 14q-22 0 -37 -9h-24z" />
    <glyph glyph-name="gcommaaccent" unicode="&#x123;" horiz-adv-x="580" 
d="M273 -223q-84 0 -143.5 42.5t-73.5 127.5h88q10 -55 45 -82t84 -27q69 0 106 41.5t37 126.5v79q-26 -42 -69.5 -65t-94.5 -23q-66 0 -113 33.5t-72.5 92t-25.5 132.5q0 75 27 132.5t75.5 90.5t112.5 33q56 0 98 -25t65 -66l5 78h82v-464q0 -257 -233 -257zM277 64
q58 0 99.5 47.5t41.5 135.5v16q0 85 -40.5 133t-100.5 48q-45 0 -77 -25t-49 -67.5t-17 -96.5q0 -55 17 -98t49 -68t77 -25zM339 788v-40q-55 -22 -62 -65q21 0 36.5 -15t15.5 -38q0 -22 -15 -37t-38 -15t-39.5 19t-16.5 53q0 50 30.5 86t88.5 52z" />
    <glyph glyph-name="kcommaaccent" unicode="&#x137;" horiz-adv-x="510" 
d="M73 0v700h90v-412l217 211h102l-242 -228q73 -26 130 -78q86 -78 126 -193h-99q-27 88 -90 149q-31 29 -66.5 50t-77.5 33v-232h-90zM210 -301v40q57 20 65 68h-1q-21 0 -36.5 14.5t-15.5 37.5t15 37.5t38 14.5t40 -18.5t17 -51.5q0 -50 -31.5 -87.5t-90.5 -54.5z" />
    <glyph glyph-name="lcommaaccent" unicode="&#x13c;" horiz-adv-x="238" 
d="M74 0v700h90v-700h-90zM55 -301v40q57 20 65 68h-1q-21 0 -36.5 14.5t-15.5 37.5t15 37.5t38 14.5t40 -18.5t17 -51.5q0 -50 -31.5 -87.5t-90.5 -54.5z" />
    <glyph glyph-name="ncommaaccent" unicode="&#x146;" horiz-adv-x="575" 
d="M73 0v498h82l5 -86q26 50 72 74.5t98 24.5q90 0 135 -54t45 -146v-311h-90v298q0 145 -117 145q-60 0 -100 -46t-40 -140v-257h-90zM227 -301v40q57 20 65 68h-1q-21 0 -36.5 14.5t-15.5 37.5t15 37.5t38 14.5t40 -18.5t17 -51.5q0 -50 -31.5 -87.5t-90.5 -54.5z" />
    <glyph glyph-name="scommaaccent" unicode="&#x219;" horiz-adv-x="491" 
d="M249 -13q-95 0 -150 42t-64 119h90q6 -40 25 -62t45.5 -31t54.5 -9q55 0 84 20.5t29 57.5q0 63 -91 85l-81 20q-65 16 -101 48.5t-36 92.5q0 64 53 102.5t138 38.5q88 0 139 -39t63 -110h-89q-18 90 -116 90q-45 0 -72 -20.5t-27 -57.5q0 -29 19.5 -46t59.5 -27l81 -20
q71 -17 109.5 -51t38.5 -99q0 -67 -53 -105.5t-149 -38.5zM178 -301v40q57 20 65 68h-1q-21 0 -36.5 14.5t-15.5 37.5t15 37.5t38 14.5t40 -18.5t17 -51.5q0 -50 -31.5 -87.5t-90.5 -54.5z" />
    <glyph glyph-name="uni021B" unicode="&#x21b;" horiz-adv-x="359" 
d="M246 -13q-79 0 -118 43t-39 120v285h-72v63h72v148h90v-148h145v-63h-145v-282q0 -51 22.5 -73.5t54.5 -22.5q20 0 35.5 3t31.5 9l16 -63q-22 -9 -44.5 -14t-48.5 -5zM149 -301v40q57 20 65 68h-1q-21 0 -36.5 14.5t-15.5 37.5t15 37.5t38 14.5t40 -18.5t17 -51.5
q0 -50 -31.5 -87.5t-90.5 -54.5z" />
    <glyph glyph-name="aogonek" unicode="&#x105;" horiz-adv-x="527" 
d="M199 -13q-74 0 -118 35.5t-44 102.5q0 54 28.5 88.5t76.5 54.5t108 28t123 9v12q0 63 -29.5 97.5t-82.5 34.5q-47 0 -78 -24t-40 -70h-87q13 72 67.5 114t141.5 42q96 0 146.5 -53t50.5 -161v-297h-82l-5 71q-27 -40 -73.5 -62t-102.5 -22zM222 49q44 0 78 19.5
t53.5 52.5t19.5 74v55q-116 -1 -180.5 -30t-64.5 -88q0 -40 26.5 -61.5t67.5 -21.5zM394 -238q-57 0 -87.5 28.5t-30.5 72.5q0 43 25 78.5t80 63.5l70 -5q-56 -19 -82 -49.5t-26 -68.5q0 -30 18 -47.5t47 -17.5q12 0 25.5 2t28.5 7v-53q-34 -11 -68 -11z" />
    <glyph glyph-name="eogonek" unicode="&#x119;" horiz-adv-x="548" 
d="M280 -13q-64 0 -118.5 29t-87.5 87t-33 146q0 83 32.5 141.5t86.5 89.5t118 31q70 0 121.5 -31.5t80.5 -90t29 -139.5v-24h-378q5 -79 42.5 -128t107.5 -49q57 0 89.5 28.5t45.5 76.5h87q-21 -84 -81 -125.5t-142 -41.5zM278 449q-58 0 -99.5 -43t-46.5 -120h287
q-7 75 -42.5 119t-98.5 44zM361 -238q-57 0 -87.5 28.5t-30.5 72.5q0 43 25 81.5t80 67.5l71 15q-58 -38 -83.5 -71.5t-25.5 -74.5q0 -29 18 -46.5t47 -17.5q12 0 25.5 2t28.5 7v-53q-34 -11 -68 -11z" />
    <glyph glyph-name="iogonek" unicode="&#x12f;" horiz-adv-x="238" 
d="M118 582q-24 0 -40.5 16t-16.5 41q0 24 16.5 40t40.5 16q25 0 41.5 -16t16.5 -40q0 -25 -16.5 -41t-41.5 -16zM74 0v498h90v-498h-90zM107 -238q-57 0 -87.5 28.5t-30.5 72.5q0 43 25 78.5t80 63.5l70 -5q-56 -19 -82 -49.5t-26 -68.5q0 -30 18 -47.5t47 -17.5
q12 0 25.5 2t28.5 7v-53q-34 -11 -68 -11z" />
    <glyph glyph-name="uogonek" unicode="&#x173;" horiz-adv-x="565" 
d="M491 498v-498h-82l-5 81q-26 -48 -69.5 -71t-94.5 -23q-86 0 -130 54t-44 146v311h90v-298q0 -74 29 -109.5t82 -35.5q55 0 94.5 46t39.5 140v257h90zM425 -238q-57 0 -87.5 28.5t-30.5 72.5q0 43 25 78.5t80 63.5l70 -5q-56 -19 -82 -49.5t-26 -68.5q0 -30 18 -47.5
t47 -17.5q12 0 25.5 2t28.5 7v-53q-34 -11 -68 -11z" />
    <glyph glyph-name="acutecomb" unicode="&#x301;" 
d="M-80 606l149 143l52 -61l-168 -122z" />
    <glyph glyph-name="glyph307" 
d="M-97 773l204 123l40 -77l-219 -95z" />
    <glyph glyph-name="glyph308" 
d="M-82 802l176 115l38 -71l-189 -91z" />
    <glyph glyph-name="glyph309" 
d="M-67 596l119 148l60 -55l-138 -128z" />
    <glyph glyph-name="acute" unicode="&#xb4;" horiz-adv-x="500" 
d="M148 606l149 143l52 -61l-168 -122z" />
    <glyph glyph-name="uni030B" unicode="&#x30b;" 
d="M-128 591l139 165l52 -50l-159 -145zM29 600l161 144l44 -56l-178 -122z" />
    <glyph glyph-name="glyph312" 
d="M-137 768l163 149l49 -62l-181 -128zM36 771l181 127l39 -68l-196 -103z" />
    <glyph glyph-name="hungarumlaut" unicode="&#x2dd;" horiz-adv-x="500" 
d="M83 591l139 165l52 -50l-159 -145zM240 600l161 144l44 -56l-178 -122z" />
    <glyph glyph-name="Aacute" unicode="&#xc1;" horiz-adv-x="638" 
d="M519 0l-55 160h-293l-56 -160h-93l248 670h99l247 -670h-97zM196 232h243l-121 349zM223 773l204 123l40 -77l-219 -95z" />
    <glyph glyph-name="Cacute" unicode="&#x106;" horiz-adv-x="690" 
d="M359 -16q-97 0 -166.5 44.5t-106.5 124t-37 182.5q0 102 37 181.5t106.5 124.5t166.5 45q118 0 194.5 -65t97.5 -177h-101q-17 80 -67 124.5t-124 44.5q-99 0 -154.5 -75.5t-55.5 -202.5t55.5 -202.5t154.5 -75.5q73 0 123 42t67 121h100q-19 -109 -96 -172.5t-194 -63.5
zM259 773l204 123l40 -77l-219 -95z" />
    <glyph glyph-name="Eacute" unicode="&#xc9;" horiz-adv-x="559" 
d="M86 0v670h420v-73h-325v-225h294v-70h-294v-229h329v-73h-424zM199 773l204 123l40 -77l-219 -95z" />
    <glyph glyph-name="Iacute" unicode="&#xcd;" horiz-adv-x="267" 
d="M86 0v670h95v-670h-95zM37 773l204 123l40 -77l-219 -95z" />
    <glyph glyph-name="Iacute_J_acutecomb.locl" horiz-adv-x="648" 
d="M324 -16q-109 0 -174 60.5t-76 167.5h94q9 -74 47.5 -114.5t108.5 -40.5q76 0 116 48.5t40 151.5v413h94v-407q0 -140 -69 -209.5t-181 -69.5zM169 309h-95v361h95v-361zM25 773l204 123l40 -77l-219 -95zM430 773l204 123l40 -77l-219 -95z" />
    <glyph glyph-name="Lacute" unicode="&#x139;" horiz-adv-x="521" 
d="M86 0v670h95v-597h311v-73h-406zM37 773l204 123l40 -77l-219 -95z" />
    <glyph glyph-name="Nacute" unicode="&#x143;" horiz-adv-x="704" 
d="M86 0v670h91l350 -524v524h91v-670h-90l-351 526v-526h-91zM255 773l204 123l40 -77l-219 -95z" />
    <glyph glyph-name="Oacute" unicode="&#xd3;" horiz-adv-x="732" 
d="M366 -16q-102 0 -172.5 45.5t-107.5 125t-37 180.5t37 180.5t107.5 125t172.5 45.5t172.5 -45.5t107.5 -125t37 -180.5t-37 -180.5t-107.5 -125t-172.5 -45.5zM366 57q70 0 118.5 34.5t73.5 97t25 146.5q0 83 -25 146t-73.5 97.5t-118.5 34.5t-118.5 -34.5t-73.5 -97.5
t-25 -146q0 -84 25 -146.5t73.5 -97t118.5 -34.5zM269 773l204 123l40 -77l-219 -95z" />
    <glyph glyph-name="Racute" unicode="&#x154;" horiz-adv-x="620" 
d="M86 0v670h230q84 0 138 -24.5t80.5 -66.5t26.5 -95q0 -78 -53 -123.5t-143 -55.5q79 -27 135.5 -101t92.5 -204h-102q-40 151 -108.5 218t-175.5 67h-26v-285h-95zM297 603h-116v-254h107q88 0 132 33.5t44 94.5q0 59 -39 92.5t-128 33.5zM196 773l204 123l40 -77
l-219 -95z" />
    <glyph glyph-name="Sacute" unicode="&#x15a;" horiz-adv-x="591" 
d="M299 -16q-119 0 -187 53t-78 149h95q9 -51 35 -80t62.5 -41t76.5 -12q73 0 112.5 32t39.5 82q0 49 -28.5 78.5t-91.5 44.5l-115 28q-48 12 -85 33.5t-57.5 58t-20.5 93.5q0 55 30 96.5t83.5 64t122.5 22.5q107 0 169 -52t76 -147h-94q-23 130 -154 130q-63 0 -101 -28.5
t-38 -78.5q0 -49 24.5 -73t77.5 -37l112 -27q96 -23 140.5 -68.5t44.5 -128.5q0 -88 -66 -140t-185 -52zM195 773l204 123l40 -77l-219 -95z" />
    <glyph glyph-name="Uacute" unicode="&#xda;" horiz-adv-x="677" 
d="M338 -16q-129 0 -197.5 73t-68.5 199v414h95v-419q0 -92 44 -143t127 -51q84 0 127.5 51t43.5 143v419h95v-414q0 -125 -69.5 -198.5t-196.5 -73.5zM241 773l204 123l40 -77l-219 -95z" />
    <glyph glyph-name="Wacute" unicode="&#x1e82;" horiz-adv-x="914" 
d="M205 0l-179 670h98l141 -552l154 552h81l154 -554l142 554h92l-179 -670h-103l-148 534l-150 -534h-103zM362 773l204 123l40 -77l-219 -95z" />
    <glyph glyph-name="Yacute" unicode="&#xdd;" horiz-adv-x="596" 
d="M118 670l182 -334l183 334h96l-234 -401v-269h-95v269l-233 401h101zM204 773l204 123l40 -77l-219 -95z" />
    <glyph glyph-name="Zacute" unicode="&#x179;" horiz-adv-x="578" 
d="M44 0v57l376 541h-366v72h481v-57l-375 -541h383v-72h-499zM198 773l204 123l40 -77l-219 -95z" />
    <glyph glyph-name="Ohungarumlaut" unicode="&#x150;" horiz-adv-x="732" 
d="M366 -16q-102 0 -172.5 45.5t-107.5 125t-37 180.5t37 180.5t107.5 125t172.5 45.5t172.5 -45.5t107.5 -125t37 -180.5t-37 -180.5t-107.5 -125t-172.5 -45.5zM366 57q70 0 118.5 34.5t73.5 97t25 146.5q0 83 -25 146t-73.5 97.5t-118.5 34.5t-118.5 -34.5t-73.5 -97.5
t-25 -146q0 -84 25 -146.5t73.5 -97t118.5 -34.5zM229 768l163 149l49 -62l-181 -128zM402 771l181 127l39 -68l-196 -103z" />
    <glyph glyph-name="Uhungarumlaut" unicode="&#x170;" horiz-adv-x="677" 
d="M338 -16q-129 0 -197.5 73t-68.5 199v414h95v-419q0 -92 44 -143t127 -51q84 0 127.5 51t43.5 143v419h95v-414q0 -125 -69.5 -198.5t-196.5 -73.5zM201 768l163 149l49 -62l-181 -128zM374 771l181 127l39 -68l-196 -103z" />
    <glyph glyph-name="aacute" unicode="&#xe1;" horiz-adv-x="527" 
d="M199 -13q-74 0 -118 35.5t-44 102.5q0 54 28.5 88.5t76.5 54.5t108 28t123 9v12q0 63 -29.5 97.5t-82.5 34.5q-47 0 -78 -24t-40 -70h-87q13 72 67.5 114t141.5 42q96 0 146.5 -53t50.5 -161v-297h-82l-5 71q-27 -40 -73.5 -62t-102.5 -22zM222 49q44 0 78 19.5
t53.5 52.5t19.5 74v55q-116 -1 -180.5 -30t-64.5 -88q0 -40 26.5 -61.5t67.5 -21.5zM184 606l149 143l52 -61l-168 -122z" />
    <glyph glyph-name="cacute" unicode="&#x107;" horiz-adv-x="538" 
d="M282 -13q-66 0 -121 30t-87.5 88.5t-32.5 143.5q0 82 32.5 140.5t87.5 90t122 31.5q52 0 97.5 -19.5t77.5 -59.5t42 -100h-90q-14 62 -49 88.5t-79 26.5q-37 0 -71 -20t-55.5 -63.5t-21.5 -114.5q0 -70 21.5 -113.5t55.5 -64t71 -20.5q45 0 79.5 28.5t51.5 95.5h88
q-11 -64 -44 -105.5t-79 -62t-96 -20.5zM203 606l149 143l52 -61l-168 -122z" />
    <glyph glyph-name="eacute" unicode="&#xe9;" horiz-adv-x="548" 
d="M280 -13q-64 0 -118.5 29t-87.5 87t-33 146q0 83 32.5 141.5t86.5 89.5t118 31q70 0 121.5 -31.5t80.5 -90t29 -139.5v-24h-378q5 -79 42.5 -128t107.5 -49q57 0 89.5 28.5t45.5 76.5h87q-21 -84 -81 -125.5t-142 -41.5zM278 449q-58 0 -99.5 -43t-46.5 -120h287
q-7 75 -42.5 119t-98.5 44zM198 606l149 143l52 -61l-168 -122z" />
    <glyph glyph-name="iacute" unicode="&#xed;" horiz-adv-x="238" 
d="M74 0v498h90v-498h-90zM51 596l119 148l60 -55l-138 -128z" />
    <glyph glyph-name="iacute_j_acutecomb.locl" horiz-adv-x="568" 
d="M65 -50h88q9 -56 40.5 -82.5t78.5 -26.5q62 0 97 41.5t35 126.5v88q-24 -48 -68.5 -72.5t-94.5 -24.5q-86 0 -129 54t-43 146v298h90v-285q0 -145 111 -145q58 0 96 46t38 140v244h90v-461q0 -128 -57 -192.5t-165 -64.5q-80 0 -137.5 42.5t-69.5 127.5zM34 606l149 143
l52 -61l-168 -122zM368 606l149 143l52 -61l-168 -122z" />
    <glyph glyph-name="lacute" unicode="&#x13a;" horiz-adv-x="238" 
d="M74 0v700h90v-700h-90zM37 802l176 115l38 -71l-189 -91z" />
    <glyph glyph-name="nacute" unicode="&#x144;" horiz-adv-x="575" 
d="M73 0v498h82l5 -86q26 50 72 74.5t98 24.5q90 0 135 -54t45 -146v-311h-90v298q0 145 -117 145q-60 0 -100 -46t-40 -140v-257h-90zM211 606l149 143l52 -61l-168 -122z" />
    <glyph glyph-name="oacute" unicode="&#xf3;" horiz-adv-x="570" 
d="M285 -13q-73 0 -128 34t-85.5 93.5t-30.5 134.5t30.5 134.5t85.5 93.5t128 34t128 -34t85.5 -93.5t30.5 -134.5t-30.5 -134.5t-85.5 -93.5t-128 -34zM285 51q70 0 110.5 55t40.5 143t-40.5 143t-110.5 55t-110.5 -55t-40.5 -143t40.5 -143t110.5 -55zM205 606l149 143
l52 -61l-168 -122z" />
    <glyph glyph-name="racute" unicode="&#x155;" horiz-adv-x="352" 
d="M73 0v498h80l5 -98q18 44 55 75.5t88 31.5q10 0 17 -1.5t15 -2.5v-83q-6 2 -16 3t-21 1q-33 0 -63.5 -18t-50 -57t-19.5 -101v-248h-90zM120 606l149 143l52 -61l-168 -122z" />
    <glyph glyph-name="sacute" unicode="&#x15b;" horiz-adv-x="491" 
d="M249 -13q-95 0 -150 42t-64 119h90q6 -40 25 -62t45.5 -31t54.5 -9q55 0 84 20.5t29 57.5q0 63 -91 85l-81 20q-65 16 -101 48.5t-36 92.5q0 64 53 102.5t138 38.5q88 0 139 -39t63 -110h-89q-18 90 -116 90q-45 0 -72 -20.5t-27 -57.5q0 -29 19.5 -46t59.5 -27l81 -20
q71 -17 109.5 -51t38.5 -99q0 -67 -53 -105.5t-149 -38.5zM162 606l149 143l52 -61l-168 -122z" />
    <glyph glyph-name="uacute" unicode="&#xfa;" horiz-adv-x="565" 
d="M491 498v-498h-82l-5 81q-26 -48 -69.5 -71t-94.5 -23q-86 0 -130 54t-44 146v311h90v-298q0 -74 29 -109.5t82 -35.5q55 0 94.5 46t39.5 140v257h90zM198 606l149 143l52 -61l-168 -122z" />
    <glyph glyph-name="wacute" unicode="&#x1e83;" horiz-adv-x="758" 
d="M168 0l-153 498h95l111 -404l123 404h79l123 -405l111 405h86l-153 -498h-93l-118 384l-118 -384h-93zM303 606l149 143l52 -61l-168 -122z" />
    <glyph glyph-name="yacute" unicode="&#xfd;" horiz-adv-x="494" 
d="M-5 -202l21 63q15 -7 33 -11t35 -4q31 0 54 20t42 66l33 80l-198 486h95l143 -393l141 393h88l-226 -576q-28 -74 -69 -109.5t-100 -35.5q-48 0 -92 21zM172 606l149 143l52 -61l-168 -122z" />
    <glyph glyph-name="zacute" unicode="&#x17a;" horiz-adv-x="481" 
d="M42 0v52l290 380h-279v66h386v-52l-293 -380h303v-66h-407zM165 606l149 143l52 -61l-168 -122z" />
    <glyph glyph-name="ohungarumlaut" unicode="&#x151;" horiz-adv-x="570" 
d="M285 -13q-73 0 -128 34t-85.5 93.5t-30.5 134.5t30.5 134.5t85.5 93.5t128 34t128 -34t85.5 -93.5t30.5 -134.5t-30.5 -134.5t-85.5 -93.5t-128 -34zM285 51q70 0 110.5 55t40.5 143t-40.5 143t-110.5 55t-110.5 -55t-40.5 -143t40.5 -143t110.5 -55zM157 591l139 165
l52 -50l-159 -145zM314 600l161 144l44 -56l-178 -122z" />
    <glyph glyph-name="uhungarumlaut" unicode="&#x171;" horiz-adv-x="565" 
d="M491 498v-498h-82l-5 81q-26 -48 -69.5 -71t-94.5 -23q-86 0 -130 54t-44 146v311h90v-298q0 -74 29 -109.5t82 -35.5q55 0 94.5 46t39.5 140v257h90zM150 591l139 165l52 -50l-159 -145zM307 600l161 144l44 -56l-178 -122z" />
    <glyph glyph-name="gravecomb" unicode="&#x300;" 
d="M-69 749l149 -143l-33 -40l-168 122z" />
    <glyph glyph-name="glyph347" 
d="M-107 896l204 -123l-25 -49l-219 95z" />
    <glyph glyph-name="glyph348" 
d="M-52 744l119 -148l-41 -35l-138 128z" />
    <glyph glyph-name="grave" unicode="`" horiz-adv-x="500" 
d="M203 749l149 -143l-33 -40l-168 122z" />
    <glyph glyph-name="Agrave" unicode="&#xc0;" horiz-adv-x="638" 
d="M519 0l-55 160h-293l-56 -160h-93l248 670h99l247 -670h-97zM196 232h243l-121 349zM213 896l204 -123l-25 -49l-219 95z" />
    <glyph glyph-name="Egrave" unicode="&#xc8;" horiz-adv-x="559" 
d="M86 0v670h420v-73h-325v-225h294v-70h-294v-229h329v-73h-424zM189 896l204 -123l-25 -49l-219 95z" />
    <glyph glyph-name="Igrave" unicode="&#xcc;" horiz-adv-x="267" 
d="M86 0v670h95v-670h-95zM27 896l204 -123l-25 -49l-219 95z" />
    <glyph glyph-name="Ograve" unicode="&#xd2;" horiz-adv-x="732" 
d="M366 -16q-102 0 -172.5 45.5t-107.5 125t-37 180.5t37 180.5t107.5 125t172.5 45.5t172.5 -45.5t107.5 -125t37 -180.5t-37 -180.5t-107.5 -125t-172.5 -45.5zM366 57q70 0 118.5 34.5t73.5 97t25 146.5q0 83 -25 146t-73.5 97.5t-118.5 34.5t-118.5 -34.5t-73.5 -97.5
t-25 -146q0 -84 25 -146.5t73.5 -97t118.5 -34.5zM259 896l204 -123l-25 -49l-219 95z" />
    <glyph glyph-name="Ugrave" unicode="&#xd9;" horiz-adv-x="677" 
d="M338 -16q-129 0 -197.5 73t-68.5 199v414h95v-419q0 -92 44 -143t127 -51q84 0 127.5 51t43.5 143v419h95v-414q0 -125 -69.5 -198.5t-196.5 -73.5zM231 896l204 -123l-25 -49l-219 95z" />
    <glyph glyph-name="Wgrave" unicode="&#x1e80;" horiz-adv-x="914" 
d="M205 0l-179 670h98l141 -552l154 552h81l154 -554l142 554h92l-179 -670h-103l-148 534l-150 -534h-103zM352 896l204 -123l-25 -49l-219 95z" />
    <glyph glyph-name="Ygrave" unicode="&#x1ef2;" horiz-adv-x="596" 
d="M118 670l182 -334l183 334h96l-234 -401v-269h-95v269l-233 401h101zM194 896l204 -123l-25 -49l-219 95z" />
    <glyph glyph-name="agrave" unicode="&#xe0;" horiz-adv-x="527" 
d="M199 -13q-74 0 -118 35.5t-44 102.5q0 54 28.5 88.5t76.5 54.5t108 28t123 9v12q0 63 -29.5 97.5t-82.5 34.5q-47 0 -78 -24t-40 -70h-87q13 72 67.5 114t141.5 42q96 0 146.5 -53t50.5 -161v-297h-82l-5 71q-27 -40 -73.5 -62t-102.5 -22zM222 49q44 0 78 19.5
t53.5 52.5t19.5 74v55q-116 -1 -180.5 -30t-64.5 -88q0 -40 26.5 -61.5t67.5 -21.5zM195 749l149 -143l-33 -40l-168 122z" />
    <glyph glyph-name="egrave" unicode="&#xe8;" horiz-adv-x="548" 
d="M280 -13q-64 0 -118.5 29t-87.5 87t-33 146q0 83 32.5 141.5t86.5 89.5t118 31q70 0 121.5 -31.5t80.5 -90t29 -139.5v-24h-378q5 -79 42.5 -128t107.5 -49q57 0 89.5 28.5t45.5 76.5h87q-21 -84 -81 -125.5t-142 -41.5zM278 449q-58 0 -99.5 -43t-46.5 -120h287
q-7 75 -42.5 119t-98.5 44zM209 749l149 -143l-33 -40l-168 122z" />
    <glyph glyph-name="igrave" unicode="&#xec;" horiz-adv-x="238" 
d="M74 0v498h90v-498h-90zM66 744l119 -148l-41 -35l-138 128z" />
    <glyph glyph-name="ograve" unicode="&#xf2;" horiz-adv-x="570" 
d="M285 -13q-73 0 -128 34t-85.5 93.5t-30.5 134.5t30.5 134.5t85.5 93.5t128 34t128 -34t85.5 -93.5t30.5 -134.5t-30.5 -134.5t-85.5 -93.5t-128 -34zM285 51q70 0 110.5 55t40.5 143t-40.5 143t-110.5 55t-110.5 -55t-40.5 -143t40.5 -143t110.5 -55zM216 749l149 -143
l-33 -40l-168 122z" />
    <glyph glyph-name="ugrave" unicode="&#xf9;" horiz-adv-x="565" 
d="M491 498v-498h-82l-5 81q-26 -48 -69.5 -71t-94.5 -23q-86 0 -130 54t-44 146v311h90v-298q0 -74 29 -109.5t82 -35.5q55 0 94.5 46t39.5 140v257h90zM209 749l149 -143l-33 -40l-168 122z" />
    <glyph glyph-name="wgrave" unicode="&#x1e81;" horiz-adv-x="758" 
d="M168 0l-153 498h95l111 -404l123 404h79l123 -405l111 405h86l-153 -498h-93l-118 384l-118 -384h-93zM314 749l149 -143l-33 -40l-168 122z" />
    <glyph glyph-name="ygrave" unicode="&#x1ef3;" horiz-adv-x="494" 
d="M-5 -202l21 63q15 -7 33 -11t35 -4q31 0 54 20t42 66l33 80l-198 486h95l143 -393l141 393h88l-226 -576q-28 -74 -69 -109.5t-100 -35.5q-48 0 -92 21zM183 749l149 -143l-33 -40l-168 122z" />
    <glyph glyph-name="uni0302" unicode="&#x302;" 
d="M-160 600l138 144h44l138 -144l-36 -40l-125 112l-125 -112z" />
    <glyph glyph-name="glyph365" 
d="M25 902l150 -117l-31 -46l-144 92l-144 -92l-30 46l150 117h49z" />
    <glyph glyph-name="glyph366" 
d="M22 739l120 -149l-36 -36l-106 109l-105 -109l-36 36l119 149h44z" />
    <glyph glyph-name="circumflex" unicode="&#x2c6;" horiz-adv-x="500" 
d="M90 600l138 144h44l138 -144l-36 -40l-125 112l-125 -112z" />
    <glyph glyph-name="tildecomb" unicode="&#x303;" 
d="M-16 624q-16 14 -26 20.5t-20 6.5q-14 0 -24.5 -14.5t-16.5 -50.5h-57q4 56 29.5 91t65.5 35q23 0 42 -12t39 -29q16 -13 26.5 -20t20.5 -7q13 0 24 14t16 51h58q-5 -56 -30 -91t-65 -35q-23 0 -42 12t-40 29z" />
    <glyph glyph-name="glyph369" 
d="M-19 785q-29 28 -50 28q-13 0 -26.5 -14.5t-20.5 -53.5h-62q6 59 35 96t73 37q24 0 45 -11t44 -32q29 -28 50 -28q13 0 26.5 14.5t20.5 53.5h62q-6 -59 -35 -96.5t-73 -37.5q-24 0 -45 11.5t-44 32.5z" />
    <glyph glyph-name="glyph370" 
d="M-15 625q-14 14 -23 20.5t-18 6.5q-13 0 -23 -14t-14 -52h-52q5 56 27 91t59 35q21 0 38.5 -11.5t35.5 -30.5q14 -14 23 -20.5t18 -6.5q13 0 23 14t14 51h52q-5 -56 -27 -90.5t-59 -34.5q-21 0 -38.5 11.5t-35.5 30.5z" />
    <glyph glyph-name="tilde" unicode="&#x2dc;" horiz-adv-x="500" 
d="M234 624q-16 14 -26 20.5t-20 6.5q-14 0 -24.5 -14.5t-16.5 -50.5h-57q4 56 29.5 91t65.5 35q23 0 42 -12t39 -29q16 -13 26.5 -20t20.5 -7q13 0 24 14t16 51h58q-5 -56 -30 -91t-65 -35q-23 0 -42 12t-40 29z" />
    <glyph glyph-name="Acircumflex" unicode="&#xc2;" horiz-adv-x="638" 
d="M519 0l-55 160h-293l-56 -160h-93l248 670h99l247 -670h-97zM196 232h243l-121 349zM345 883l150 -117l-31 -46l-144 92l-144 -92l-30 46l150 117h49z" />
    <glyph glyph-name="Ecircumflex" unicode="&#xca;" horiz-adv-x="559" 
d="M86 0v670h420v-73h-325v-225h294v-70h-294v-229h329v-73h-424zM321 883l150 -117l-31 -46l-144 92l-144 -92l-30 46l150 117h49z" />
    <glyph glyph-name="Icircumflex" unicode="&#xce;" horiz-adv-x="267" 
d="M86 0v670h95v-670h-95zM159 883l150 -117l-31 -46l-144 92l-144 -92l-30 46l150 117h49z" />
    <glyph glyph-name="Ocircumflex" unicode="&#xd4;" horiz-adv-x="732" 
d="M366 -16q-102 0 -172.5 45.5t-107.5 125t-37 180.5t37 180.5t107.5 125t172.5 45.5t172.5 -45.5t107.5 -125t37 -180.5t-37 -180.5t-107.5 -125t-172.5 -45.5zM366 57q70 0 118.5 34.5t73.5 97t25 146.5q0 83 -25 146t-73.5 97.5t-118.5 34.5t-118.5 -34.5t-73.5 -97.5
t-25 -146q0 -84 25 -146.5t73.5 -97t118.5 -34.5zM391 883l150 -117l-31 -46l-144 92l-144 -92l-30 46l150 117h49z" />
    <glyph glyph-name="Ucircumflex" unicode="&#xdb;" horiz-adv-x="677" 
d="M338 -16q-129 0 -197.5 73t-68.5 199v414h95v-419q0 -92 44 -143t127 -51q84 0 127.5 51t43.5 143v419h95v-414q0 -125 -69.5 -198.5t-196.5 -73.5zM363 883l150 -117l-31 -46l-144 92l-144 -92l-30 46l150 117h49z" />
    <glyph glyph-name="Wcircumflex" unicode="&#x174;" horiz-adv-x="914" 
d="M205 0l-179 670h98l141 -552l154 552h81l154 -554l142 554h92l-179 -670h-103l-148 534l-150 -534h-103zM484 883l150 -117l-31 -46l-144 92l-144 -92l-30 46l150 117h49z" />
    <glyph glyph-name="Ycircumflex" unicode="&#x176;" horiz-adv-x="596" 
d="M118 670l182 -334l183 334h96l-234 -401v-269h-95v269l-233 401h101zM326 883l150 -117l-31 -46l-144 92l-144 -92l-30 46l150 117h49z" />
    <glyph glyph-name="Atilde" unicode="&#xc3;" horiz-adv-x="638" 
d="M519 0l-55 160h-293l-56 -160h-93l248 670h99l247 -670h-97zM196 232h243l-121 349zM301 785q-29 28 -50 28q-13 0 -26.5 -14.5t-20.5 -53.5h-62q6 59 35 96t73 37q24 0 45 -11t44 -32q29 -28 50 -28q13 0 26.5 14.5t20.5 53.5h62q-6 -59 -35 -96.5t-73 -37.5
q-24 0 -45 11.5t-44 32.5z" />
    <glyph glyph-name="Itilde" unicode="&#x128;" horiz-adv-x="267" 
d="M86 0v670h95v-670h-95zM115 785q-29 28 -50 28q-13 0 -26.5 -14.5t-20.5 -53.5h-62q6 59 35 96t73 37q24 0 45 -11t44 -32q29 -28 50 -28q13 0 26.5 14.5t20.5 53.5h62q-6 -59 -35 -96.5t-73 -37.5q-24 0 -45 11.5t-44 32.5z" />
    <glyph glyph-name="Ntilde" unicode="&#xd1;" horiz-adv-x="704" 
d="M86 0v670h91l350 -524v524h91v-670h-90l-351 526v-526h-91zM333 785q-29 28 -50 28q-13 0 -26.5 -14.5t-20.5 -53.5h-62q6 59 35 96t73 37q24 0 45 -11t44 -32q29 -28 50 -28q13 0 26.5 14.5t20.5 53.5h62q-6 -59 -35 -96.5t-73 -37.5q-24 0 -45 11.5t-44 32.5z" />
    <glyph glyph-name="Otilde" unicode="&#xd5;" horiz-adv-x="732" 
d="M366 -16q-102 0 -172.5 45.5t-107.5 125t-37 180.5t37 180.5t107.5 125t172.5 45.5t172.5 -45.5t107.5 -125t37 -180.5t-37 -180.5t-107.5 -125t-172.5 -45.5zM366 57q70 0 118.5 34.5t73.5 97t25 146.5q0 83 -25 146t-73.5 97.5t-118.5 34.5t-118.5 -34.5t-73.5 -97.5
t-25 -146q0 -84 25 -146.5t73.5 -97t118.5 -34.5zM347 785q-29 28 -50 28q-13 0 -26.5 -14.5t-20.5 -53.5h-62q6 59 35 96t73 37q24 0 45 -11t44 -32q29 -28 50 -28q13 0 26.5 14.5t20.5 53.5h62q-6 -59 -35 -96.5t-73 -37.5q-24 0 -45 11.5t-44 32.5z" />
    <glyph glyph-name="Utilde" unicode="&#x168;" horiz-adv-x="677" 
d="M338 -16q-129 0 -197.5 73t-68.5 199v414h95v-419q0 -92 44 -143t127 -51q84 0 127.5 51t43.5 143v419h95v-414q0 -125 -69.5 -198.5t-196.5 -73.5zM319 785q-29 28 -50 28q-13 0 -26.5 -14.5t-20.5 -53.5h-62q6 59 35 96t73 37q24 0 45 -11t44 -32q29 -28 50 -28
q13 0 26.5 14.5t20.5 53.5h62q-6 -59 -35 -96.5t-73 -37.5q-24 0 -45 11.5t-44 32.5z" />
    <glyph glyph-name="acircumflex" unicode="&#xe2;" horiz-adv-x="527" 
d="M199 -13q-74 0 -118 35.5t-44 102.5q0 54 28.5 88.5t76.5 54.5t108 28t123 9v12q0 63 -29.5 97.5t-82.5 34.5q-47 0 -78 -24t-40 -70h-87q13 72 67.5 114t141.5 42q96 0 146.5 -53t50.5 -161v-297h-82l-5 71q-27 -40 -73.5 -62t-102.5 -22zM222 49q44 0 78 19.5
t53.5 52.5t19.5 74v55q-116 -1 -180.5 -30t-64.5 -88q0 -40 26.5 -61.5t67.5 -21.5zM104 600l138 144h44l138 -144l-36 -40l-125 112l-125 -112z" />
    <glyph glyph-name="ecircumflex" unicode="&#xea;" horiz-adv-x="548" 
d="M280 -13q-64 0 -118.5 29t-87.5 87t-33 146q0 83 32.5 141.5t86.5 89.5t118 31q70 0 121.5 -31.5t80.5 -90t29 -139.5v-24h-378q5 -79 42.5 -128t107.5 -49q57 0 89.5 28.5t45.5 76.5h87q-21 -84 -81 -125.5t-142 -41.5zM278 449q-58 0 -99.5 -43t-46.5 -120h287
q-7 75 -42.5 119t-98.5 44zM118 600l138 144h44l138 -144l-36 -40l-125 112l-125 -112z" />
    <glyph glyph-name="icircumflex" unicode="&#xee;" horiz-adv-x="238" 
d="M74 0v498h90v-498h-90zM140 739l120 -149l-36 -36l-106 109l-105 -109l-36 36l119 149h44z" />
    <glyph glyph-name="ocircumflex" unicode="&#xf4;" horiz-adv-x="570" 
d="M285 -13q-73 0 -128 34t-85.5 93.5t-30.5 134.5t30.5 134.5t85.5 93.5t128 34t128 -34t85.5 -93.5t30.5 -134.5t-30.5 -134.5t-85.5 -93.5t-128 -34zM285 51q70 0 110.5 55t40.5 143t-40.5 143t-110.5 55t-110.5 -55t-40.5 -143t40.5 -143t110.5 -55zM125 600l138 144h44
l138 -144l-36 -40l-125 112l-125 -112z" />
    <glyph glyph-name="ucircumflex" unicode="&#xfb;" horiz-adv-x="565" 
d="M491 498v-498h-82l-5 81q-26 -48 -69.5 -71t-94.5 -23q-86 0 -130 54t-44 146v311h90v-298q0 -74 29 -109.5t82 -35.5q55 0 94.5 46t39.5 140v257h90zM118 600l138 144h44l138 -144l-36 -40l-125 112l-125 -112z" />
    <glyph glyph-name="wcircumflex" unicode="&#x175;" horiz-adv-x="758" 
d="M168 0l-153 498h95l111 -404l123 404h79l123 -405l111 405h86l-153 -498h-93l-118 384l-118 -384h-93zM223 600l138 144h44l138 -144l-36 -40l-125 112l-125 -112z" />
    <glyph glyph-name="ycircumflex" unicode="&#x177;" horiz-adv-x="494" 
d="M-5 -202l21 63q15 -7 33 -11t35 -4q31 0 54 20t42 66l33 80l-198 486h95l143 -393l141 393h88l-226 -576q-28 -74 -69 -109.5t-100 -35.5q-48 0 -92 21zM92 600l138 144h44l138 -144l-36 -40l-125 112l-125 -112z" />
    <glyph glyph-name="atilde" unicode="&#xe3;" horiz-adv-x="527" 
d="M199 -13q-74 0 -118 35.5t-44 102.5q0 54 28.5 88.5t76.5 54.5t108 28t123 9v12q0 63 -29.5 97.5t-82.5 34.5q-47 0 -78 -24t-40 -70h-87q13 72 67.5 114t141.5 42q96 0 146.5 -53t50.5 -161v-297h-82l-5 71q-27 -40 -73.5 -62t-102.5 -22zM222 49q44 0 78 19.5
t53.5 52.5t19.5 74v55q-116 -1 -180.5 -30t-64.5 -88q0 -40 26.5 -61.5t67.5 -21.5zM248 624q-16 14 -26 20.5t-20 6.5q-14 0 -24.5 -14.5t-16.5 -50.5h-57q4 56 29.5 91t65.5 35q23 0 42 -12t39 -29q16 -13 26.5 -20t20.5 -7q13 0 24 14t16 51h58q-5 -56 -30 -91t-65 -35
q-23 0 -42 12t-40 29z" />
    <glyph glyph-name="itilde" unicode="&#x129;" horiz-adv-x="238" 
d="M74 0v498h90v-498h-90zM103 625q-14 14 -23 20.5t-18 6.5q-13 0 -23 -14t-14 -52h-52q5 56 27 91t59 35q21 0 38.5 -11.5t35.5 -30.5q14 -14 23 -20.5t18 -6.5q13 0 23 14t14 51h52q-5 -56 -27 -90.5t-59 -34.5q-21 0 -38.5 11.5t-35.5 30.5z" />
    <glyph glyph-name="ntilde" unicode="&#xf1;" horiz-adv-x="575" 
d="M73 0v498h82l5 -86q26 50 72 74.5t98 24.5q90 0 135 -54t45 -146v-311h-90v298q0 145 -117 145q-60 0 -100 -46t-40 -140v-257h-90zM275 624q-16 14 -26 20.5t-20 6.5q-14 0 -24.5 -14.5t-16.5 -50.5h-57q4 56 29.5 91t65.5 35q23 0 42 -12t39 -29q16 -13 26.5 -20
t20.5 -7q13 0 24 14t16 51h58q-5 -56 -30 -91t-65 -35q-23 0 -42 12t-40 29z" />
    <glyph glyph-name="otilde" unicode="&#xf5;" horiz-adv-x="570" 
d="M285 -13q-73 0 -128 34t-85.5 93.5t-30.5 134.5t30.5 134.5t85.5 93.5t128 34t128 -34t85.5 -93.5t30.5 -134.5t-30.5 -134.5t-85.5 -93.5t-128 -34zM285 51q70 0 110.5 55t40.5 143t-40.5 143t-110.5 55t-110.5 -55t-40.5 -143t40.5 -143t110.5 -55zM269 624
q-16 14 -26 20.5t-20 6.5q-14 0 -24.5 -14.5t-16.5 -50.5h-57q4 56 29.5 91t65.5 35q23 0 42 -12t39 -29q16 -13 26.5 -20t20.5 -7q13 0 24 14t16 51h58q-5 -56 -30 -91t-65 -35q-23 0 -42 12t-40 29z" />
    <glyph glyph-name="utilde" unicode="&#x169;" horiz-adv-x="565" 
d="M491 498v-498h-82l-5 81q-26 -48 -69.5 -71t-94.5 -23q-86 0 -130 54t-44 146v311h90v-298q0 -74 29 -109.5t82 -35.5q55 0 94.5 46t39.5 140v257h90zM262 624q-16 14 -26 20.5t-20 6.5q-14 0 -24.5 -14.5t-16.5 -50.5h-57q4 56 29.5 91t65.5 35q23 0 42 -12t39 -29
q16 -13 26.5 -20t20.5 -7q13 0 24 14t16 51h58q-5 -56 -30 -91t-65 -35q-23 0 -42 12t-40 29z" />
    <glyph glyph-name="uni030C" unicode="&#x30c;" 
d="M160 714l-138 -144h-44l-138 144l36 40l125 -112l125 112z" />
    <glyph glyph-name="glyph397" 
d="M-24 752l-150 117l30 46l144 -92l144 92l31 -46l-150 -117h-49z" />
    <glyph glyph-name="caron" unicode="&#x2c7;" horiz-adv-x="500" 
d="M410 714l-138 -144h-44l-138 144l36 40l125 -112l125 112z" />
    <glyph glyph-name="uni0315" unicode="&#x315;" 
d="M19 526h-39v174h71v-8q0 -26 -4.5 -57.5t-11.5 -61t-16 -47.5z" />
    <glyph glyph-name="glyph400" 
d="M20 486h-42v184h76v-10q0 -26 -4.5 -59.5t-12 -64t-17.5 -50.5z" />
    <glyph glyph-name="glyph401" 
d="M16 553h-42v147h70v-8q0 -37 -8 -73.5t-20 -65.5z" />
    <glyph glyph-name="uni0304" unicode="&#x304;" 
d="M-143 598v64h286v-64h-286z" />
    <glyph glyph-name="glyph403" 
d="M-163 763v70h326v-70h-326z" />
    <glyph glyph-name="glyph404" 
d="M-127 598v64h254v-64h-254z" />
    <glyph glyph-name="macron" unicode="&#xaf;" horiz-adv-x="500" 
d="M107 598v64h286v-64h-286z" />
    <glyph glyph-name="Ccaron" unicode="&#x10c;" horiz-adv-x="690" 
d="M359 -16q-97 0 -166.5 44.5t-106.5 124t-37 182.5q0 102 37 181.5t106.5 124.5t166.5 45q118 0 194.5 -65t97.5 -177h-101q-17 80 -67 124.5t-124 44.5q-99 0 -154.5 -75.5t-55.5 -202.5t55.5 -202.5t154.5 -75.5q73 0 123 42t67 121h100q-19 -109 -96 -172.5t-194 -63.5
zM332 733l-150 117l30 46l144 -92l144 92l31 -46l-150 -117h-49z" />
    <glyph glyph-name="Dcaron" unicode="&#x10e;" horiz-adv-x="702" 
d="M86 0v670h207q121 0 201 -44t120 -120t40 -171q0 -96 -40 -171.5t-120 -119.5t-200 -44h-208zM293 600h-116v-529h116q134 0 197 72t63 192q0 81 -27 140.5t-84.5 92t-148.5 32.5zM289 733l-150 117l30 46l144 -92l144 92l31 -46l-150 -117h-49z" />
    <glyph glyph-name="Ecaron" unicode="&#x11a;" horiz-adv-x="559" 
d="M86 0v670h420v-73h-325v-225h294v-70h-294v-229h329v-73h-424zM272 733l-150 117l30 46l144 -92l144 92l31 -46l-150 -117h-49z" />
    <glyph glyph-name="Lcaron" unicode="&#x13d;" horiz-adv-x="521" 
d="M86 0v670h95v-597h311v-73h-406zM367 486h-42v184h76v-10q0 -26 -4.5 -59.5t-12 -64t-17.5 -50.5z" />
    <glyph glyph-name="Ncaron" unicode="&#x147;" horiz-adv-x="704" 
d="M86 0v670h91l350 -524v524h91v-670h-90l-351 526v-526h-91zM328 733l-150 117l30 46l144 -92l144 92l31 -46l-150 -117h-49z" />
    <glyph glyph-name="Rcaron" unicode="&#x158;" horiz-adv-x="620" 
d="M86 0v670h230q84 0 138 -24.5t80.5 -66.5t26.5 -95q0 -78 -53 -123.5t-143 -55.5q79 -27 135.5 -101t92.5 -204h-102q-40 151 -108.5 218t-175.5 67h-26v-285h-95zM297 603h-116v-254h107q88 0 132 33.5t44 94.5q0 59 -39 92.5t-128 33.5zM269 733l-150 117l30 46
l144 -92l144 92l31 -46l-150 -117h-49z" />
    <glyph glyph-name="Scaron" unicode="&#x160;" horiz-adv-x="591" 
d="M299 -16q-119 0 -187 53t-78 149h95q9 -51 35 -80t62.5 -41t76.5 -12q73 0 112.5 32t39.5 82q0 49 -28.5 78.5t-91.5 44.5l-115 28q-48 12 -85 33.5t-57.5 58t-20.5 93.5q0 55 30 96.5t83.5 64t122.5 22.5q107 0 169 -52t76 -147h-94q-23 130 -154 130q-63 0 -101 -28.5
t-38 -78.5q0 -49 24.5 -73t77.5 -37l112 -27q96 -23 140.5 -68.5t44.5 -128.5q0 -88 -66 -140t-185 -52zM268 733l-150 117l30 46l144 -92l144 92l31 -46l-150 -117h-49z" />
    <glyph glyph-name="Tcaron" unicode="&#x164;" horiz-adv-x="583" 
d="M244 0v597h-222v73h539v-73h-222v-597h-95zM268 733l-150 117l30 46l144 -92l144 92l31 -46l-150 -117h-49z" />
    <glyph glyph-name="Zcaron" unicode="&#x17d;" horiz-adv-x="578" 
d="M44 0v57l376 541h-366v72h481v-57l-375 -541h383v-72h-499zM271 733l-150 117l30 46l144 -92l144 92l31 -46l-150 -117h-49z" />
    <glyph glyph-name="Amacron" unicode="&#x100;" horiz-adv-x="638" 
d="M519 0l-55 160h-293l-56 -160h-93l248 670h99l247 -670h-97zM196 232h243l-121 349zM157 763v70h326v-70h-326z" />
    <glyph glyph-name="Emacron" unicode="&#x112;" horiz-adv-x="559" 
d="M86 0v670h420v-73h-325v-225h294v-70h-294v-229h329v-73h-424zM133 763v70h326v-70h-326z" />
    <glyph glyph-name="Imacron" unicode="&#x12a;" horiz-adv-x="267" 
d="M86 0v670h95v-670h-95zM-29 763v70h326v-70h-326z" />
    <glyph glyph-name="Umacron" unicode="&#x16a;" horiz-adv-x="677" 
d="M338 -16q-129 0 -197.5 73t-68.5 199v414h95v-419q0 -92 44 -143t127 -51q84 0 127.5 51t43.5 143v419h95v-414q0 -125 -69.5 -198.5t-196.5 -73.5zM175 763v70h326v-70h-326z" />
    <glyph glyph-name="ccaron" unicode="&#x10d;" horiz-adv-x="538" 
d="M282 -13q-66 0 -121 30t-87.5 88.5t-32.5 143.5q0 82 32.5 140.5t87.5 90t122 31.5q52 0 97.5 -19.5t77.5 -59.5t42 -100h-90q-14 62 -49 88.5t-79 26.5q-37 0 -71 -20t-55.5 -63.5t-21.5 -114.5q0 -70 21.5 -113.5t55.5 -64t71 -20.5q45 0 79.5 28.5t51.5 95.5h88
q-11 -64 -44 -105.5t-79 -62t-96 -20.5zM443 714l-138 -144h-44l-138 144l36 40l125 -112l125 112z" />
    <glyph glyph-name="dcaron" unicode="&#x10f;" horiz-adv-x="622" 
d="M257 511q54 0 95 -23.5t65 -63.5v276h90v-700h-82l-5 83q-26 -46 -71 -71t-95 -25q-67 0 -114.5 34.5t-73 93.5t-25.5 134q0 77 27 136t75.5 92.5t113.5 33.5zM278 444q-46 0 -78 -25.5t-49 -70t-17 -99.5t17 -99.5t49 -70t78 -25.5q38 0 70 22t51.5 64t19.5 102v15
q0 87 -41 137t-100 50zM621 526h-39v174h71v-8q0 -26 -4.5 -57.5t-11.5 -61t-16 -47.5z" />
    <glyph glyph-name="ecaron" unicode="&#x11b;" horiz-adv-x="548" 
d="M280 -13q-64 0 -118.5 29t-87.5 87t-33 146q0 83 32.5 141.5t86.5 89.5t118 31q70 0 121.5 -31.5t80.5 -90t29 -139.5v-24h-378q5 -79 42.5 -128t107.5 -49q57 0 89.5 28.5t45.5 76.5h87q-21 -84 -81 -125.5t-142 -41.5zM278 449q-58 0 -99.5 -43t-46.5 -120h287
q-7 75 -42.5 119t-98.5 44zM438 714l-138 -144h-44l-138 144l36 40l125 -112l125 112z" />
    <glyph glyph-name="lcaron" unicode="&#x13e;" horiz-adv-x="279" 
d="M74 0v700h90v-700h-90zM279 526h-39v174h71v-8q0 -26 -4.5 -57.5t-11.5 -61t-16 -47.5z" />
    <glyph glyph-name="ncaron" unicode="&#x148;" horiz-adv-x="575" 
d="M73 0v498h82l5 -86q26 50 72 74.5t98 24.5q90 0 135 -54t45 -146v-311h-90v298q0 145 -117 145q-60 0 -100 -46t-40 -140v-257h-90zM451 714l-138 -144h-44l-138 144l36 40l125 -112l125 112z" />
    <glyph glyph-name="rcaron" unicode="&#x159;" horiz-adv-x="352" 
d="M73 0v498h80l5 -98q18 44 55 75.5t88 31.5q10 0 17 -1.5t15 -2.5v-83q-6 2 -16 3t-21 1q-33 0 -63.5 -18t-50 -57t-19.5 -101v-248h-90zM360 714l-138 -144h-44l-138 144l36 40l125 -112l125 112z" />
    <glyph glyph-name="scaron" unicode="&#x161;" horiz-adv-x="491" 
d="M249 -13q-95 0 -150 42t-64 119h90q6 -40 25 -62t45.5 -31t54.5 -9q55 0 84 20.5t29 57.5q0 63 -91 85l-81 20q-65 16 -101 48.5t-36 92.5q0 64 53 102.5t138 38.5q88 0 139 -39t63 -110h-89q-18 90 -116 90q-45 0 -72 -20.5t-27 -57.5q0 -29 19.5 -46t59.5 -27l81 -20
q71 -17 109.5 -51t38.5 -99q0 -67 -53 -105.5t-149 -38.5zM402 714l-138 -144h-44l-138 144l36 40l125 -112l125 112z" />
    <glyph glyph-name="tcaron" unicode="&#x165;" horiz-adv-x="359" 
d="M246 -13q-79 0 -118 43t-39 120v285h-72v63h72v148h90v-148h145v-63h-145v-282q0 -51 22.5 -73.5t54.5 -22.5q20 0 35.5 3t31.5 9l16 -63q-22 -9 -44.5 -14t-48.5 -5zM282 553h-42v147h70v-8q0 -37 -8 -73.5t-20 -65.5z" />
    <glyph glyph-name="zcaron" unicode="&#x17e;" horiz-adv-x="481" 
d="M42 0v52l290 380h-279v66h386v-52l-293 -380h303v-66h-407zM405 714l-138 -144h-44l-138 144l36 40l125 -112l125 112z" />
    <glyph glyph-name="amacron" unicode="&#x101;" horiz-adv-x="527" 
d="M199 -13q-74 0 -118 35.5t-44 102.5q0 54 28.5 88.5t76.5 54.5t108 28t123 9v12q0 63 -29.5 97.5t-82.5 34.5q-47 0 -78 -24t-40 -70h-87q13 72 67.5 114t141.5 42q96 0 146.5 -53t50.5 -161v-297h-82l-5 71q-27 -40 -73.5 -62t-102.5 -22zM222 49q44 0 78 19.5
t53.5 52.5t19.5 74v55q-116 -1 -180.5 -30t-64.5 -88q0 -40 26.5 -61.5t67.5 -21.5zM121 598v64h286v-64h-286z" />
    <glyph glyph-name="emacron" unicode="&#x113;" horiz-adv-x="548" 
d="M280 -13q-64 0 -118.5 29t-87.5 87t-33 146q0 83 32.5 141.5t86.5 89.5t118 31q70 0 121.5 -31.5t80.5 -90t29 -139.5v-24h-378q5 -79 42.5 -128t107.5 -49q57 0 89.5 28.5t45.5 76.5h87q-21 -84 -81 -125.5t-142 -41.5zM278 449q-58 0 -99.5 -43t-46.5 -120h287
q-7 75 -42.5 119t-98.5 44zM135 598v64h286v-64h-286z" />
    <glyph glyph-name="imacron" unicode="&#x12b;" horiz-adv-x="238" 
d="M74 0v498h90v-498h-90zM-9 598v64h254v-64h-254z" />
    <glyph glyph-name="umacron" unicode="&#x16b;" horiz-adv-x="565" 
d="M491 498v-498h-82l-5 81q-26 -48 -69.5 -71t-94.5 -23q-86 0 -130 54t-44 146v311h90v-298q0 -74 29 -109.5t82 -35.5q55 0 94.5 46t39.5 140v257h90zM135 598v64h286v-64h-286z" />
    <glyph glyph-name="uni0308" unicode="&#x308;" 
d="M94 579q-22 0 -37.5 14.5t-15.5 37.5t15.5 37.5t37.5 14.5t37 -14.5t15 -37.5t-15 -37.5t-37 -14.5zM-94 579q-22 0 -37 14.5t-15 37.5t15 37.5t37 14.5t37.5 -14.5t15.5 -37.5t-15.5 -37.5t-37.5 -14.5z" />
    <glyph glyph-name="glyph433" 
d="M105 755q-23 0 -38.5 15t-15.5 40q0 24 15.5 39.5t38.5 15.5q24 0 39.5 -15.5t15.5 -39.5q0 -25 -15.5 -40t-39.5 -15zM-105 755q-24 0 -39.5 15t-15.5 40q0 24 15.5 39.5t39.5 15.5q23 0 38.5 -15.5t15.5 -39.5q0 -25 -15.5 -40t-38.5 -15z" />
    <glyph glyph-name="glyph434" 
d="M-81 578q-23 0 -38 15t-15 38t15 38t38 15q22 0 37.5 -15t15.5 -38t-15.5 -38t-37.5 -15zM81 578q-23 0 -38 15t-15 38t15 38t38 15t38 -15t15 -38t-15 -38t-38 -15z" />
    <glyph glyph-name="dieresis" unicode="&#xa8;" horiz-adv-x="500" 
d="M344 579q-22 0 -37.5 14.5t-15.5 37.5t15.5 37.5t37.5 14.5t37 -14.5t15 -37.5t-15 -37.5t-37 -14.5zM156 579q-22 0 -37 14.5t-15 37.5t15 37.5t37 14.5t37.5 -14.5t15.5 -37.5t-15.5 -37.5t-37.5 -14.5z" />
    <glyph glyph-name="uni0306" unicode="&#x306;" 
d="M0 571q-64 0 -105 40.5t-47 103.5h61q6 -37 30.5 -60.5t60.5 -23.5t60.5 23.5t30.5 60.5h61q-6 -63 -47 -103.5t-105 -40.5z" />
    <glyph glyph-name="glyph437" 
d="M0 757q-48 0 -85 19.5t-59 51.5t-24 70h64q5 -30 33 -53.5t71 -23.5q44 0 71 23.5t31 53.5h65q-3 -38 -23.5 -70t-57 -51.5t-86.5 -19.5z" />
    <glyph glyph-name="breve" unicode="&#x2d8;" horiz-adv-x="500" 
d="M250 571q-64 0 -105 40.5t-47 103.5h61q6 -37 30.5 -60.5t60.5 -23.5t60.5 23.5t30.5 60.5h61q-6 -63 -47 -103.5t-105 -40.5z" />
    <glyph glyph-name="Adieresis" unicode="&#xc4;" horiz-adv-x="638" 
d="M519 0l-55 160h-293l-56 -160h-93l248 670h99l247 -670h-97zM196 232h243l-121 349zM425 755q-23 0 -38.5 15t-15.5 40q0 24 15.5 39.5t38.5 15.5q24 0 39.5 -15.5t15.5 -39.5q0 -25 -15.5 -40t-39.5 -15zM215 755q-24 0 -39.5 15t-15.5 40q0 24 15.5 39.5t39.5 15.5
q23 0 38.5 -15.5t15.5 -39.5q0 -25 -15.5 -40t-38.5 -15z" />
    <glyph glyph-name="Edieresis" unicode="&#xcb;" horiz-adv-x="559" 
d="M86 0v670h420v-73h-325v-225h294v-70h-294v-229h329v-73h-424zM401 755q-23 0 -38.5 15t-15.5 40q0 24 15.5 39.5t38.5 15.5q24 0 39.5 -15.5t15.5 -39.5q0 -25 -15.5 -40t-39.5 -15zM191 755q-24 0 -39.5 15t-15.5 40q0 24 15.5 39.5t39.5 15.5q23 0 38.5 -15.5
t15.5 -39.5q0 -25 -15.5 -40t-38.5 -15z" />
    <glyph glyph-name="Idieresis" unicode="&#xcf;" horiz-adv-x="267" 
d="M86 0v670h95v-670h-95zM239 755q-23 0 -38.5 15t-15.5 40q0 24 15.5 39.5t38.5 15.5q24 0 39.5 -15.5t15.5 -39.5q0 -25 -15.5 -40t-39.5 -15zM29 755q-24 0 -39.5 15t-15.5 40q0 24 15.5 39.5t39.5 15.5q23 0 38.5 -15.5t15.5 -39.5q0 -25 -15.5 -40t-38.5 -15z" />
    <glyph glyph-name="Odieresis" unicode="&#xd6;" horiz-adv-x="732" 
d="M366 -16q-102 0 -172.5 45.5t-107.5 125t-37 180.5t37 180.5t107.5 125t172.5 45.5t172.5 -45.5t107.5 -125t37 -180.5t-37 -180.5t-107.5 -125t-172.5 -45.5zM366 57q70 0 118.5 34.5t73.5 97t25 146.5q0 83 -25 146t-73.5 97.5t-118.5 34.5t-118.5 -34.5t-73.5 -97.5
t-25 -146q0 -84 25 -146.5t73.5 -97t118.5 -34.5zM471 755q-23 0 -38.5 15t-15.5 40q0 24 15.5 39.5t38.5 15.5q24 0 39.5 -15.5t15.5 -39.5q0 -25 -15.5 -40t-39.5 -15zM261 755q-24 0 -39.5 15t-15.5 40q0 24 15.5 39.5t39.5 15.5q23 0 38.5 -15.5t15.5 -39.5
q0 -25 -15.5 -40t-38.5 -15z" />
    <glyph glyph-name="Udieresis" unicode="&#xdc;" horiz-adv-x="677" 
d="M338 -16q-129 0 -197.5 73t-68.5 199v414h95v-419q0 -92 44 -143t127 -51q84 0 127.5 51t43.5 143v419h95v-414q0 -125 -69.5 -198.5t-196.5 -73.5zM443 755q-23 0 -38.5 15t-15.5 40q0 24 15.5 39.5t38.5 15.5q24 0 39.5 -15.5t15.5 -39.5q0 -25 -15.5 -40t-39.5 -15z
M233 755q-24 0 -39.5 15t-15.5 40q0 24 15.5 39.5t39.5 15.5q23 0 38.5 -15.5t15.5 -39.5q0 -25 -15.5 -40t-38.5 -15z" />
    <glyph glyph-name="Wdieresis" unicode="&#x1e84;" horiz-adv-x="914" 
d="M205 0l-179 670h98l141 -552l154 552h81l154 -554l142 554h92l-179 -670h-103l-148 534l-150 -534h-103zM564 755q-23 0 -38.5 15t-15.5 40q0 24 15.5 39.5t38.5 15.5q24 0 39.5 -15.5t15.5 -39.5q0 -25 -15.5 -40t-39.5 -15zM354 755q-24 0 -39.5 15t-15.5 40
q0 24 15.5 39.5t39.5 15.5q23 0 38.5 -15.5t15.5 -39.5q0 -25 -15.5 -40t-38.5 -15z" />
    <glyph glyph-name="Ydieresis" unicode="&#x178;" horiz-adv-x="596" 
d="M118 670l182 -334l183 334h96l-234 -401v-269h-95v269l-233 401h101zM406 755q-23 0 -38.5 15t-15.5 40q0 24 15.5 39.5t38.5 15.5q24 0 39.5 -15.5t15.5 -39.5q0 -25 -15.5 -40t-39.5 -15zM196 755q-24 0 -39.5 15t-15.5 40q0 24 15.5 39.5t39.5 15.5q23 0 38.5 -15.5
t15.5 -39.5q0 -25 -15.5 -40t-38.5 -15z" />
    <glyph glyph-name="Abreve" unicode="&#x102;" horiz-adv-x="638" 
d="M519 0l-55 160h-293l-56 -160h-93l248 670h99l247 -670h-97zM196 232h243l-121 349zM320 738q-48 0 -85 19.5t-59 51.5t-24 70h64q5 -30 33 -53.5t71 -23.5q44 0 71 23.5t31 53.5h65q-3 -38 -23.5 -70t-57 -51.5t-86.5 -19.5z" />
    <glyph glyph-name="Gbreve" unicode="&#x11e;" horiz-adv-x="718" 
d="M49 335q0 103 38.5 182t109.5 124t170 45q119 0 197 -62t96 -171h-101q-15 79 -65 120t-127 41q-67 0 -116.5 -34.5t-76 -97t-26.5 -147.5q0 -84 26.5 -147t76 -97.5t116.5 -34.5q94 0 148 54.5t62 153.5h-184v71h276v-30q0 -93 -34 -165.5t-101 -114t-167 -41.5t-171 45
t-109 124.5t-38 181.5zM367 738q-48 0 -85 19.5t-59 51.5t-24 70h64q5 -30 33 -53.5t71 -23.5q44 0 71 23.5t31 53.5h65q-3 -38 -23.5 -70t-57 -51.5t-86.5 -19.5z" />
    <glyph glyph-name="adieresis" unicode="&#xe4;" horiz-adv-x="527" 
d="M199 -13q-74 0 -118 35.5t-44 102.5q0 54 28.5 88.5t76.5 54.5t108 28t123 9v12q0 63 -29.5 97.5t-82.5 34.5q-47 0 -78 -24t-40 -70h-87q13 72 67.5 114t141.5 42q96 0 146.5 -53t50.5 -161v-297h-82l-5 71q-27 -40 -73.5 -62t-102.5 -22zM222 49q44 0 78 19.5
t53.5 52.5t19.5 74v55q-116 -1 -180.5 -30t-64.5 -88q0 -40 26.5 -61.5t67.5 -21.5zM358 579q-22 0 -37.5 14.5t-15.5 37.5t15.5 37.5t37.5 14.5t37 -14.5t15 -37.5t-15 -37.5t-37 -14.5zM170 579q-22 0 -37 14.5t-15 37.5t15 37.5t37 14.5t37.5 -14.5t15.5 -37.5
t-15.5 -37.5t-37.5 -14.5z" />
    <glyph glyph-name="edieresis" unicode="&#xeb;" horiz-adv-x="548" 
d="M280 -13q-64 0 -118.5 29t-87.5 87t-33 146q0 83 32.5 141.5t86.5 89.5t118 31q70 0 121.5 -31.5t80.5 -90t29 -139.5v-24h-378q5 -79 42.5 -128t107.5 -49q57 0 89.5 28.5t45.5 76.5h87q-21 -84 -81 -125.5t-142 -41.5zM278 449q-58 0 -99.5 -43t-46.5 -120h287
q-7 75 -42.5 119t-98.5 44zM372 579q-22 0 -37.5 14.5t-15.5 37.5t15.5 37.5t37.5 14.5t37 -14.5t15 -37.5t-15 -37.5t-37 -14.5zM184 579q-22 0 -37 14.5t-15 37.5t15 37.5t37 14.5t37.5 -14.5t15.5 -37.5t-15.5 -37.5t-37.5 -14.5z" />
    <glyph glyph-name="idieresis" unicode="&#xef;" horiz-adv-x="238" 
d="M74 0v498h90v-498h-90zM37 578q-23 0 -38 15t-15 38t15 38t38 15q22 0 37.5 -15t15.5 -38t-15.5 -38t-37.5 -15zM199 578q-23 0 -38 15t-15 38t15 38t38 15t38 -15t15 -38t-15 -38t-38 -15z" />
    <glyph glyph-name="odieresis" unicode="&#xf6;" horiz-adv-x="570" 
d="M285 -13q-73 0 -128 34t-85.5 93.5t-30.5 134.5t30.5 134.5t85.5 93.5t128 34t128 -34t85.5 -93.5t30.5 -134.5t-30.5 -134.5t-85.5 -93.5t-128 -34zM285 51q70 0 110.5 55t40.5 143t-40.5 143t-110.5 55t-110.5 -55t-40.5 -143t40.5 -143t110.5 -55zM379 579
q-22 0 -37.5 14.5t-15.5 37.5t15.5 37.5t37.5 14.5t37 -14.5t15 -37.5t-15 -37.5t-37 -14.5zM191 579q-22 0 -37 14.5t-15 37.5t15 37.5t37 14.5t37.5 -14.5t15.5 -37.5t-15.5 -37.5t-37.5 -14.5z" />
    <glyph glyph-name="udieresis" unicode="&#xfc;" horiz-adv-x="565" 
d="M491 498v-498h-82l-5 81q-26 -48 -69.5 -71t-94.5 -23q-86 0 -130 54t-44 146v311h90v-298q0 -74 29 -109.5t82 -35.5q55 0 94.5 46t39.5 140v257h90zM372 579q-22 0 -37.5 14.5t-15.5 37.5t15.5 37.5t37.5 14.5t37 -14.5t15 -37.5t-15 -37.5t-37 -14.5zM184 579
q-22 0 -37 14.5t-15 37.5t15 37.5t37 14.5t37.5 -14.5t15.5 -37.5t-15.5 -37.5t-37.5 -14.5z" />
    <glyph glyph-name="wdieresis" unicode="&#x1e85;" horiz-adv-x="758" 
d="M168 0l-153 498h95l111 -404l123 404h79l123 -405l111 405h86l-153 -498h-93l-118 384l-118 -384h-93zM477 579q-22 0 -37.5 14.5t-15.5 37.5t15.5 37.5t37.5 14.5t37 -14.5t15 -37.5t-15 -37.5t-37 -14.5zM289 579q-22 0 -37 14.5t-15 37.5t15 37.5t37 14.5t37.5 -14.5
t15.5 -37.5t-15.5 -37.5t-37.5 -14.5z" />
    <glyph glyph-name="ydieresis" unicode="&#xff;" horiz-adv-x="494" 
d="M-5 -202l21 63q15 -7 33 -11t35 -4q31 0 54 20t42 66l33 80l-198 486h95l143 -393l141 393h88l-226 -576q-28 -74 -69 -109.5t-100 -35.5q-48 0 -92 21zM346 579q-22 0 -37.5 14.5t-15.5 37.5t15.5 37.5t37.5 14.5t37 -14.5t15 -37.5t-15 -37.5t-37 -14.5zM158 579
q-22 0 -37 14.5t-15 37.5t15 37.5t37 14.5t37.5 -14.5t15.5 -37.5t-15.5 -37.5t-37.5 -14.5z" />
    <glyph glyph-name="abreve" unicode="&#x103;" horiz-adv-x="527" 
d="M199 -13q-74 0 -118 35.5t-44 102.5q0 54 28.5 88.5t76.5 54.5t108 28t123 9v12q0 63 -29.5 97.5t-82.5 34.5q-47 0 -78 -24t-40 -70h-87q13 72 67.5 114t141.5 42q96 0 146.5 -53t50.5 -161v-297h-82l-5 71q-27 -40 -73.5 -62t-102.5 -22zM222 49q44 0 78 19.5
t53.5 52.5t19.5 74v55q-116 -1 -180.5 -30t-64.5 -88q0 -40 26.5 -61.5t67.5 -21.5zM264 571q-64 0 -105 40.5t-47 103.5h61q6 -37 30.5 -60.5t60.5 -23.5t60.5 23.5t30.5 60.5h61q-6 -63 -47 -103.5t-105 -40.5z" />
    <glyph glyph-name="gbreve" unicode="&#x11f;" horiz-adv-x="580" 
d="M273 -223q-84 0 -143.5 42.5t-73.5 127.5h88q10 -55 45 -82t84 -27q69 0 106 41.5t37 126.5v79q-26 -42 -69.5 -65t-94.5 -23q-66 0 -113 33.5t-72.5 92t-25.5 132.5q0 75 27 132.5t75.5 90.5t112.5 33q56 0 98 -25t65 -66l5 78h82v-464q0 -257 -233 -257zM277 64
q58 0 99.5 47.5t41.5 135.5v16q0 85 -40.5 133t-100.5 48q-45 0 -77 -25t-49 -67.5t-17 -96.5q0 -55 17 -98t49 -68t77 -25zM279 571q-64 0 -105 40.5t-47 103.5h61q6 -37 30.5 -60.5t60.5 -23.5t60.5 23.5t30.5 60.5h61q-6 -63 -47 -103.5t-105 -40.5z" />
    <glyph glyph-name="uni0307" unicode="&#x307;" 
d="M0 582q-25 0 -41.5 16t-16.5 41q0 24 16.5 40t41.5 16t41.5 -16t16.5 -40q0 -25 -16.5 -41t-41.5 -16z" />
    <glyph glyph-name="glyph458" 
d="M0 753q-26 0 -43 17t-17 42t17 41.5t43 16.5t43 -16.5t17 -41.5t-17 -42t-43 -17z" />
    <glyph glyph-name="dotaccent" unicode="&#x2d9;" horiz-adv-x="500" 
d="M250 582q-25 0 -41.5 16t-16.5 41q0 24 16.5 40t41.5 16t41.5 -16t16.5 -40q0 -25 -16.5 -41t-41.5 -16z" />
    <glyph glyph-name="dotbelowcomb" unicode="&#x323;" 
d="M0 -196q-25 0 -41.5 16t-16.5 40t16.5 40.5t41.5 16.5t41.5 -16.5t16.5 -40.5t-16.5 -40t-41.5 -16z" />
    <glyph glyph-name="glyph461" 
d="M0 -199q-26 0 -42.5 16.5t-16.5 41.5t16.5 41.5t42.5 16.5t42.5 -16.5t16.5 -41.5t-16.5 -41.5t-42.5 -16.5z" />
    <glyph glyph-name="Edotaccent" unicode="&#x116;" horiz-adv-x="559" 
d="M86 0v670h420v-73h-325v-225h294v-70h-294v-229h329v-73h-424zM296 753q-26 0 -43 17t-17 42t17 41.5t43 16.5t43 -16.5t17 -41.5t-17 -42t-43 -17z" />
    <glyph glyph-name="Cdotaccent" unicode="&#x10a;" horiz-adv-x="690" 
d="M359 -16q-97 0 -166.5 44.5t-106.5 124t-37 182.5q0 102 37 181.5t106.5 124.5t166.5 45q118 0 194.5 -65t97.5 -177h-101q-17 80 -67 124.5t-124 44.5q-99 0 -154.5 -75.5t-55.5 -202.5t55.5 -202.5t154.5 -75.5q73 0 123 42t67 121h100q-19 -109 -96 -172.5t-194 -63.5
zM356 753q-26 0 -43 17t-17 42t17 41.5t43 16.5t43 -16.5t17 -41.5t-17 -42t-43 -17z" />
    <glyph glyph-name="Idotaccent" unicode="&#x130;" horiz-adv-x="267" 
d="M86 0v670h95v-670h-95zM134 753q-26 0 -43 17t-17 42t17 41.5t43 16.5t43 -16.5t17 -41.5t-17 -42t-43 -17z" />
    <glyph glyph-name="Gdotaccent" unicode="&#x120;" horiz-adv-x="718" 
d="M49 335q0 103 38.5 182t109.5 124t170 45q119 0 197 -62t96 -171h-101q-15 79 -65 120t-127 41q-67 0 -116.5 -34.5t-76 -97t-26.5 -147.5q0 -84 26.5 -147t76 -97.5t116.5 -34.5q94 0 148 54.5t62 153.5h-184v71h276v-30q0 -93 -34 -165.5t-101 -114t-167 -41.5t-171 45
t-109 124.5t-38 181.5zM367 753q-26 0 -43 17t-17 42t17 41.5t43 16.5t43 -16.5t17 -41.5t-17 -42t-43 -17z" />
    <glyph glyph-name="Zdotaccent" unicode="&#x17b;" horiz-adv-x="578" 
d="M44 0v57l376 541h-366v72h481v-57l-375 -541h383v-72h-499zM295 753q-26 0 -43 17t-17 42t17 41.5t43 16.5t43 -16.5t17 -41.5t-17 -42t-43 -17z" />
    <glyph glyph-name="uni1E24" unicode="&#x1e24;" horiz-adv-x="700" 
d="M86 0v670h95v-296h338v296h95v-670h-95v301h-338v-301h-95zM350 -199q-26 0 -42.5 16.5t-16.5 41.5t16.5 41.5t42.5 16.5t42.5 -16.5t16.5 -41.5t-16.5 -41.5t-42.5 -16.5z" />
    <glyph glyph-name="uni1E36" unicode="&#x1e36;" horiz-adv-x="521" 
d="M86 0v670h95v-597h311v-73h-406zM289 -199q-26 0 -42.5 16.5t-16.5 41.5t16.5 41.5t42.5 16.5t42.5 -16.5t16.5 -41.5t-16.5 -41.5t-42.5 -16.5z" />
    <glyph glyph-name="edotaccent" unicode="&#x117;" horiz-adv-x="548" 
d="M280 -13q-64 0 -118.5 29t-87.5 87t-33 146q0 83 32.5 141.5t86.5 89.5t118 31q70 0 121.5 -31.5t80.5 -90t29 -139.5v-24h-378q5 -79 42.5 -128t107.5 -49q57 0 89.5 28.5t45.5 76.5h87q-21 -84 -81 -125.5t-142 -41.5zM278 449q-58 0 -99.5 -43t-46.5 -120h287
q-7 75 -42.5 119t-98.5 44zM278 582q-25 0 -41.5 16t-16.5 41q0 24 16.5 40t41.5 16t41.5 -16t16.5 -40q0 -25 -16.5 -41t-41.5 -16z" />
    <glyph glyph-name="cdotaccent" unicode="&#x10b;" horiz-adv-x="538" 
d="M282 -13q-66 0 -121 30t-87.5 88.5t-32.5 143.5q0 82 32.5 140.5t87.5 90t122 31.5q52 0 97.5 -19.5t77.5 -59.5t42 -100h-90q-14 62 -49 88.5t-79 26.5q-37 0 -71 -20t-55.5 -63.5t-21.5 -114.5q0 -70 21.5 -113.5t55.5 -64t71 -20.5q45 0 79.5 28.5t51.5 95.5h88
q-11 -64 -44 -105.5t-79 -62t-96 -20.5zM283 582q-25 0 -41.5 16t-16.5 41q0 24 16.5 40t41.5 16t41.5 -16t16.5 -40q0 -25 -16.5 -41t-41.5 -16z" />
    <glyph glyph-name="gdotaccent" unicode="&#x121;" horiz-adv-x="580" 
d="M273 -223q-84 0 -143.5 42.5t-73.5 127.5h88q10 -55 45 -82t84 -27q69 0 106 41.5t37 126.5v79q-26 -42 -69.5 -65t-94.5 -23q-66 0 -113 33.5t-72.5 92t-25.5 132.5q0 75 27 132.5t75.5 90.5t112.5 33q56 0 98 -25t65 -66l5 78h82v-464q0 -257 -233 -257zM277 64
q58 0 99.5 47.5t41.5 135.5v16q0 85 -40.5 133t-100.5 48q-45 0 -77 -25t-49 -67.5t-17 -96.5q0 -55 17 -98t49 -68t77 -25zM279 582q-25 0 -41.5 16t-16.5 41q0 24 16.5 40t41.5 16t41.5 -16t16.5 -40q0 -25 -16.5 -41t-41.5 -16z" />
    <glyph glyph-name="zdotaccent" unicode="&#x17c;" horiz-adv-x="481" 
d="M42 0v52l290 380h-279v66h386v-52l-293 -380h303v-66h-407zM245 582q-25 0 -41.5 16t-16.5 41q0 24 16.5 40t41.5 16t41.5 -16t16.5 -40q0 -25 -16.5 -41t-41.5 -16z" />
    <glyph glyph-name="uni1E25" unicode="&#x1e25;" horiz-adv-x="575" 
d="M73 0v700h90v-282q26 47 71.5 70t95.5 23q90 0 135 -54t45 -146v-311h-90v298q0 145 -117 145q-60 0 -100 -46t-40 -140v-257h-90zM291 -196q-25 0 -41.5 16t-16.5 40t16.5 40.5t41.5 16.5t41.5 -16.5t16.5 -40.5t-16.5 -40t-41.5 -16z" />
    <glyph glyph-name="uni1E37" unicode="&#x1e37;" horiz-adv-x="238" 
d="M74 0v700h90v-700h-90zM119 -196q-25 0 -41.5 16t-16.5 40t16.5 40.5t41.5 16.5t41.5 -16.5t16.5 -40.5t-16.5 -40t-41.5 -16z" />
    <glyph glyph-name="uni030A" unicode="&#x30a;" 
d="M0 557q-50 0 -82.5 31.5t-32.5 80.5q0 50 32.5 80.5t82.5 30.5q51 0 83.5 -30.5t32.5 -80.5q0 -49 -33 -80.5t-83 -31.5zM0 602q29 0 47 18t18 49q0 29 -18 47.5t-47 18.5t-47 -18.5t-18 -47.5q0 -31 18 -49t47 -18z" />
    <glyph glyph-name="glyph476" 
d="M0 734q-52 0 -85.5 32t-33.5 83q0 52 33.5 83t85.5 31q53 0 86.5 -31t33.5 -83q0 -51 -33.5 -83t-86.5 -32zM0 784q28 0 46 17t18 48q0 29 -17.5 47t-46.5 18t-46.5 -18t-17.5 -47q0 -31 17.5 -48t46.5 -17z" />
    <glyph glyph-name="ring" unicode="&#x2da;" horiz-adv-x="500" 
d="M249 557q-50 0 -82.5 31.5t-32.5 80.5q0 50 32.5 80.5t82.5 30.5q51 0 83.5 -30.5t32.5 -80.5q0 -49 -33 -80.5t-83 -31.5zM249 602q29 0 47 18t18 49q0 29 -18 47.5t-47 18.5t-47 -18.5t-18 -47.5q0 -31 18 -49t47 -18z" />
    <glyph glyph-name="Aring" unicode="&#xc5;" horiz-adv-x="638" 
d="M519 0l-55 160h-293l-56 -160h-93l248 670h99l247 -670h-97zM196 232h243l-121 349zM320 734q-52 0 -85.5 32t-33.5 83q0 52 33.5 83t85.5 31q53 0 86.5 -31t33.5 -83q0 -51 -33.5 -83t-86.5 -32zM320 784q28 0 46 17t18 48q0 29 -17.5 47t-46.5 18t-46.5 -18t-17.5 -47
q0 -31 17.5 -48t46.5 -17z" />
    <glyph glyph-name="Uring" unicode="&#x16e;" horiz-adv-x="677" 
d="M338 -16q-129 0 -197.5 73t-68.5 199v414h95v-419q0 -92 44 -143t127 -51q84 0 127.5 51t43.5 143v419h95v-414q0 -125 -69.5 -198.5t-196.5 -73.5zM338 734q-52 0 -85.5 32t-33.5 83q0 52 33.5 83t85.5 31q53 0 86.5 -31t33.5 -83q0 -51 -33.5 -83t-86.5 -32zM338 784
q28 0 46 17t18 48q0 29 -17.5 47t-46.5 18t-46.5 -18t-17.5 -47q0 -31 17.5 -48t46.5 -17z" />
    <glyph glyph-name="aring" unicode="&#xe5;" horiz-adv-x="527" 
d="M199 -13q-74 0 -118 35.5t-44 102.5q0 54 28.5 88.5t76.5 54.5t108 28t123 9v12q0 63 -29.5 97.5t-82.5 34.5q-47 0 -78 -24t-40 -70h-87q13 72 67.5 114t141.5 42q96 0 146.5 -53t50.5 -161v-297h-82l-5 71q-27 -40 -73.5 -62t-102.5 -22zM222 49q44 0 78 19.5
t53.5 52.5t19.5 74v55q-116 -1 -180.5 -30t-64.5 -88q0 -40 26.5 -61.5t67.5 -21.5zM264 557q-50 0 -82.5 31.5t-32.5 80.5q0 50 32.5 80.5t82.5 30.5q51 0 83.5 -30.5t32.5 -80.5q0 -49 -33 -80.5t-83 -31.5zM264 602q29 0 47 18t18 49q0 29 -18 47.5t-47 18.5t-47 -18.5
t-18 -47.5q0 -31 18 -49t47 -18z" />
    <glyph glyph-name="uring" unicode="&#x16f;" horiz-adv-x="565" 
d="M491 498v-498h-82l-5 81q-26 -48 -69.5 -71t-94.5 -23q-86 0 -130 54t-44 146v311h90v-298q0 -74 29 -109.5t82 -35.5q55 0 94.5 46t39.5 140v257h90zM278 557q-50 0 -82.5 31.5t-32.5 80.5q0 50 32.5 80.5t82.5 30.5q51 0 83.5 -30.5t32.5 -80.5q0 -49 -33 -80.5
t-83 -31.5zM278 602q29 0 47 18t18 49q0 29 -18 47.5t-47 18.5t-47 -18.5t-18 -47.5q0 -31 18 -49t47 -18z" />
    </font>
</defs>
</svg>
